请选择 进入手机版 | 继续访问电脑版

中国高清论坛

 找回密码
 立即注册
搜索
查看: 7437|回复: 2196

[剧情片] 寄生虫/寄生上流(台) Parasite.2019.1080p.FHDRip.H264.AAC-NonDRM 5.03 GiB

  [复制链接]

超级版主

高清币
16794
金钱
38990
鲜花
0
在线时间
12004 小时
最后登录
2019-8-24
发表于 2019-8-10 17:53:35 | 显示全部楼层 |阅读模式


◎译  名 寄生虫/寄生上流(台)上流寄生族(港)
◎片  名 Parasite/Gisaengchung/기생충/
◎年  代 2019
◎国  家 韩国
◎类  别 动作/惊悚
◎语  言 韩语
◎IMDb评分 8.7/10 from 9712 users
◎IMDB链接 https://www.imdb.com/title/tt6751668/
◎片  长 2 h 12 min
◎导  演 奉俊昊 Joon-ho Bong
◎主  演 宋康昊 Kang-ho Song
       李善均 Seon-gyun Lee
       赵汝贞 Yeo-Jeong Jo
       崔宇植 Woo-Sik Choi
       朴素丹 Su-dam Park




◎简  介

  《寄生虫》讲述了发生在身份地位悬殊的两个家庭身上的故事:宋康昊饰演的无业游民父亲基泽,让寄托了家人生计希望的大儿子(崔宇植 饰)前往IT公司老总朴社长(李善均 饰)家应聘课外教师,随之发生了一连串意外事件。

获奖记录

戛纳电影节(2019;第72届)
获奖
·金棕榈奖奉俊昊 Joon-ho Bong  

  1. General
  2. Complete name                  : D:\迅雷下载\PARASITE.2019.1080p.FHDRip.H264.AAC-NonDRM.mp4
  3. Format                         : MPEG-4
  4. Format profile                 : Base Media
  5. Codec ID                       : isom (isom/iso2/avc1/mp41)
  6. File size                      : 5.03 GiB
  7. Duration                       : 2 h 12 min
  8. Overall bit rate               : 5 449 kb/s
  9. Writing application            : Lavf57.71.100
  10. IsTruncated                    : Yes
  11. FileExtension_Invalid          : mov mp4 m4v m4a m4b m4p 3ga 3gpa 3gpp 3gp 3gpp2 3g2 k3g jpm jpx mqv ismv isma ismt f4a f4b f4v

  12. Video
  13. ID                             : 1
  14. Format                         : AVC
  15. Format/Info                    : Advanced Video Codec
  16. Format profile                 : High@L4
  17. Format settings                : CABAC / 4 Ref Frames
  18. Format settings, CABAC         : Yes
  19. Format settings, ReFrames      : 4 frames
  20. Format settings, GOP           : M=4, N=23
  21. Codec ID                       : avc1
  22. Codec ID/Info                  : Advanced Video Coding
  23. Duration                       : 2 h 12 min
  24. Bit rate                       : 5 120 kb/s
  25. Width                          : 1 920 pixels
  26. Height                         : 1 080 pixels
  27. Display aspect ratio           : 16:9
  28. Frame rate mode                : Constant
  29. Frame rate                     : 23.976 (24000/1001) FPS
  30. Color space                    : YUV
  31. Chroma subsampling             : 4:2:0
  32. Bit depth                      : 8 bits
  33. Scan type                      : Progressive
  34. Bits/(Pixel*Frame)             : 0.103
  35. Stream size                    : 4.72 GiB (94%)
  36. Writing library                : x264 core 148 r2768 d32d7bf
  37. Encoding settings              : cabac=1 / ref=3 / deblock=1:0:0 / analyse=0x3:0x113 / me=hex / subme=8 / psy=1 / psy_rd=1.00:0.00 / mixed_ref=1 / me_range=16 / chroma_me=1 / trellis=2 / 8x8dct=1 / cqm=0 / deadzone=21,11 / fast_pskip=1 / chroma_qp_offset=-2 / threads=24 / lookahead_threads=4 / sliced_threads=0 / nr=0 / decimate=1 / interlaced=0 / bluray_compat=0 / stitchable=1 / constrained_intra=0 / bframes=3 / b_pyramid=2 / b_adapt=1 / b_bias=0 / direct=3 / weightb=1 / open_gop=0 / weightp=2 / keyint=23 / keyint_min=12 / scenecut=40 / intra_refresh=0 / rc_lookahead=23 / rc=2pass / mbtree=1 / bitrate=5120 / ratetol=1.0 / qcomp=0.60 / qpmin=0 / qpmax=69 / qpstep=4 / cplxblur=20.0 / qblur=0.5 / ip_ratio=1.40 / aq=1:1.00
  38. Codec configuration box        : avcC

  39. Audio
  40. ID                             : 2
  41. Format                         : AAC LC
  42. Format/Info                    : Advanced Audio Codec Low Complexity
  43. Codec ID                       : mp4a-40-2
  44. Duration                       : 2 h 12 min
  45. Bit rate mode                  : Constant
  46. Bit rate                       : 320 kb/s
  47. Channel(s)                     : 2 channels
  48. Channel layout                 : L R
  49. Sampling rate                  : 48.0 kHz
  50. Frame rate                     : 46.875 FPS (1024 SPF)
  51. Compression mode               : Lossy
  52. Stream size                    : 302 MiB (6%)
  53. Default                        : Yes
  54. Alternate group                : 1

复制代码






游客,如果您要查看本帖隐藏内容请回复,您还可以免扣高清币免回复下载:https://www.85lou.com/plugin.php?id=wyfaka_url:url

回复

使用道具 举报

知名艺人

高清币
2
金钱
219
鲜花
0
在线时间
19 小时
最后登录
2019-8-20
发表于 2019-8-10 22:42:09 | 显示全部楼层

我看不错噢 谢谢楼主!中国高清论坛越来越好!

点评

已经无法下载了。提示违规的内容  发表于 2019-8-14 02:39
回复 支持 1 反对 0

使用道具 举报

人气偶像

高清币
22
金钱
1040
鲜花
0
在线时间
267 小时
最后登录
2019-8-24
发表于 2019-8-10 22:42:19 | 显示全部楼层
寄生虫/寄生上流(台)上流寄生族(港)
回复 支持 1 反对 0

使用道具 举报

金鸡奖主角

高清币
694
金钱
5262
鲜花
0
在线时间
2418 小时
最后登录
2019-8-23
发表于 2019-8-10 22:43:24 | 显示全部楼层

我看不错噢 谢谢楼主!中国高清论坛越来越好!
回复 支持 1 反对 0

使用道具 举报

永恒神话

高清币
10710
金钱
16417
鲜花
0
在线时间
1081 小时
最后登录
2019-8-23
发表于 2019-8-10 17:55:24 | 显示全部楼层
楼主发贴辛苦了,谢谢楼主分享!我觉得中国高清论坛是注册对了!

点评

不存在这个问题,已用迅雷5.8.14.706版下载完毕。  发表于 2019-8-10 22:39
迅雷下不了,包含违规内容?  发表于 2019-8-10 20:40
回复 支持 反对

使用道具 举报

知名艺人

高清币
65
金钱
140
鲜花
0
在线时间
32 小时
最后登录
2019-8-22
发表于 2019-8-10 17:56:17 | 显示全部楼层
楼主发贴辛苦了,谢谢楼主分享!我觉得中国高清论坛是注册对了!
回复 支持 反对

使用道具 举报

金鸡奖主角

高清币
696
金钱
4671
鲜花
0
在线时间
941 小时
最后登录
2019-8-23
发表于 2019-8-10 17:59:12 | 显示全部楼层

楼主太厉害了!楼主,电影应该很好看我觉得中国高清论坛真是个好地方!
回复 支持 反对

使用道具 举报

人气偶像

高清币
52
金钱
877
鲜花
0
在线时间
200 小时
最后登录
2019-8-23
发表于 2019-8-10 17:59:26 | 显示全部楼层

这个帖子不回对不起自己!我想我是一天也不能离开中国高清论坛
回复 支持 反对

使用道具 举报

知名艺人

高清币
5
金钱
645
鲜花
0
在线时间
95 小时
最后登录
2019-8-23
发表于 2019-8-10 17:59:50 | 显示全部楼层
奥术大师大所大所大所多撒大所多
回复 支持 反对

使用道具 举报

永恒神话

高清币
9032
金钱
12224
鲜花
0
在线时间
1833 小时
最后登录
2019-8-24
发表于 2019-8-10 18:00:29 | 显示全部楼层

这东西我收了!谢谢楼主!中国高清论坛真好!
回复 支持 反对

使用道具 举报

天王巨星

高清币
3
金钱
2856
鲜花
0
在线时间
1074 小时
最后登录
2019-8-23
发表于 2019-8-10 18:00:58 | 显示全部楼层
楼主发贴辛苦了,谢谢楼主分享!我觉得中国高清论坛是注册对了!
回复 支持 反对

使用道具 举报

天王巨星

高清币
3
金钱
2856
鲜花
0
在线时间
1074 小时
最后登录
2019-8-23
发表于 2019-8-10 18:01:15 | 显示全部楼层
第一次前排,棒棒的!
回复 支持 反对

使用道具 举报

人气偶像

高清币
221
金钱
529
鲜花
0
在线时间
103 小时
最后登录
2019-8-23
发表于 2019-8-10 18:01:33 | 显示全部楼层

这个帖子不回对不起自己!我想我是一天也不能离开中国高清论坛
回复 支持 反对

使用道具 举报

懒得打字嘛,点击右侧快捷回复 【右侧内容,后台自定义】
您需要登录后才可以回帖 登录 | 立即注册

本版积分规则

QQ|手机版|小黑屋|中国高清论坛 ( 黔ICP备16007815号-1 )

GMT+8, 2019-8-24 02:33 , Processed in 0.055754 second(s), 27 queries .

Powered by Discuz! X3.4

© 2001-2017 Comsenz Inc.

快速回复 返回顶部 返回列表