请选择 进入手机版 | 继续访问电脑版

中国高清论坛

 找回密码
 立即注册
搜索
查看: 3754|回复: 1170

[剧情片] 寄生虫/寄生上流(台) Parasite.2019.KOREAN.1080p.WEBRip.x264.AAC2.0-NOGRP 5.02 GiB

  [复制链接]

超级版主

高清币
16794
金钱
38988
鲜花
0
在线时间
12004 小时
最后登录
2019-8-23
发表于 2019-8-12 08:20:18 | 显示全部楼层 |阅读模式


◎译  名 寄生虫/寄生上流(台)上流寄生族(港)
◎片  名 Parasite/Gisaengchung/기생충/
◎年  代 2019
◎国  家 韩国
◎类  别 动作/惊悚
◎语  言 韩语
◎IMDb评分 8.7/10 from 9712 users
◎IMDB链接 https://www.imdb.com/title/tt6751668/
◎片  长 2 h 12 min
◎导  演 奉俊昊 Joon-ho Bong
◎主  演 宋康昊 Kang-ho Song
       李善均 Seon-gyun Lee
       赵汝贞 Yeo-Jeong Jo
       崔宇植 Woo-Sik Choi
       朴素丹 Su-dam Park


◎简  介

  《寄生虫》讲述了发生在身份地位悬殊的两个家庭身上的故事:宋康昊饰演的无业游民父亲基泽,让寄托了家人生计希望的大儿子(崔宇植 饰)前往IT公司老总朴社长(李善均 饰)家应聘课外教师,随之发生了一连串意外事件。

获奖记录

戛纳电影节(2019;第72届)
获奖
·金棕榈奖奉俊昊 Joon-ho Bong  


  1. Video
  2. ID : 1
  3. Format : AVC
  4. Format/Info : Advanced Video Codec
  5. Format profile : High@L4
  6. Format settings : CABAC / 4 Ref Frames
  7. Format settings, CABAC : Yes
  8. Format settings, Reference frames : 4 frames
  9. Format settings, GOP : M=4, N=23
  10. Codec ID : V_MPEG4/ISO/AVC
  11. Duration : 2 h 12 min
  12. Bit rate : 5 120 kb/s
  13. Width : 1 920 pixels
  14. Height : 1 080 pixels
  15. Display aspect ratio : 16:9
  16. Frame rate mode : Constant
  17. Frame rate : 23.976 (24000/1001) FPS
  18. Color space : YUV
  19. Chroma subsampling : 4:2:0
  20. Bit depth : 8 bits
  21. Scan type : Progressive
  22. Bits/(Pixel*Frame) : 0.103
  23. Stream size : 4.72 GiB (94%)
  24. Writing library : x264 core 148 r2768 d32d7bf
  25. Encoding settings : cabac=1 / ref=3 / deblock=1:0:0 / analyse=0x3:0x113 / me=hex / subme=8 / psy=1 / psy_rd=1.00:0.00 / mixed_ref=1 / me_range=16 / chroma_me=1 / trellis=2 / 8x8dct=1 / cqm=0 / deadzone=21,11 / fast_pskip=1 / chroma_qp_offset=-2 / threads=24 / lookahead_threads=4 / sliced_threads=0 / nr=0 / decimate=1 / interlaced=0 / bluray_compat=0 / stitchable=1 / constrained_intra=0 / bframes=3 / b_pyramid=2 / b_adapt=1 / b_bias=0 / direct=3 / weightb=1 / open_gop=0 / weightp=2 / keyint=23 / keyint_min=12 / scenecut=40 / intra_refresh=0 / rc_lookahead=23 / rc=2pass / mbtree=1 / bitrate=5120 / ratetol=1.0 / qcomp=0.60 / qpmin=0 / qpmax=69 / qpstep=4 / cplxblur=20.0 / qblur=0.5 / ip_ratio=1.40 / aq=1:1.00
  26. Language : Korean
  27. Default : Yes
  28. Forced : No

  29. Audio
  30. ID : 2
  31. Format : AAC LC
  32. Format/Info : Advanced Audio Codec Low Complexity
  33. Codec ID : A_AAC-2
  34. Duration : 2 h 12 min
  35. Bit rate : 320 kb/s
  36. Channel(s) : 2 channels
  37. Channel layout : L R
  38. Sampling rate : 48.0 kHz
  39. Frame rate : 46.875 FPS (1024 SPF)
  40. Compression mode : Lossy
  41. Stream size : 302 MiB (6%)
  42. Language : Korean
  43. Default : Yes
  44. Forced : No

  45. Text
  46. ID : 3
  47. Format : UTF-8
  48. Codec ID : S_TEXT/UTF8
  49. Codec ID/Info : UTF-8 Plain Text
  50. Duration : 2 h 5 min
  51. Bit rate : 53 b/s
  52. Count of elements : 1647
  53. Stream size : 49.3 KiB (0%)
  54. Language : English
  55. Default : Yes
  56. Forced : No
复制代码







游客,如果您要查看本帖隐藏内容请回复,您还可以免扣高清币免回复下载:https://www.85lou.com/plugin.php?id=wyfaka_url:url

回复

使用道具 举报

超级明星

高清币
238
金钱
7398
鲜花
0
在线时间
880 小时
最后登录
2019-8-24
发表于 2019-8-12 12:31:25 | 显示全部楼层

楼主太厉害了!楼主,电影应该很好看我觉得中国高清论坛真是个好地方!
回复 支持 1 反对 0

使用道具 举报

好莱坞明星

高清币
2410
金钱
3072
鲜花
0
在线时间
294 小时
最后登录
2019-8-23
发表于 2019-8-12 12:39:21 | 显示全部楼层
多謝 ! 給大家分享 !

回复 支持 1 反对 0

使用道具 举报

金鸡奖主角

高清币
1344
金钱
2842
鲜花
0
在线时间
279 小时
最后登录
2019-8-22
发表于 2019-8-12 12:39:26 | 显示全部楼层

楼主太厉害了!楼主,电影应该很好看我觉得中国高清论坛真是个好地方!
回复 支持 1 反对 0

使用道具 举报

永恒神话

高清币
27970
金钱
38776
鲜花
0
在线时间
946 小时
最后登录
2019-8-24
发表于 2019-8-12 12:39:46 | 显示全部楼层
楼主发帖辛苦了,感谢楼主无私的分享!永远支持高清论坛!
回复 支持 1 反对 0

使用道具 举报

人气偶像

高清币
345
金钱
819
鲜花
0
在线时间
140 小时
最后登录
2019-8-24
发表于 2019-8-12 12:43:36 | 显示全部楼层
楼主发贴辛苦了,谢谢楼主分享!我觉得中国高清论坛是注册对了!
回复 支持 1 反对 0

使用道具 举报

金鸡奖主角

高清币
51
金钱
4287
鲜花
0
在线时间
1184 小时
最后登录
2019-8-23
发表于 2019-8-12 12:45:36 | 显示全部楼层
thank you very much
回复 支持 1 反对 0

使用道具 举报

人气偶像

高清币
-2
金钱
882
鲜花
0
在线时间
126 小时
最后登录
2019-8-23
发表于 2019-8-12 12:44:06 | 显示全部楼层


既然你诚信诚意的推荐了,那我就勉为其难的看看吧!中国高清论坛不走平凡路。
回复 支持 1 反对 0

使用道具 举报

禁止访问

高清币
20
金钱
30
鲜花
0
在线时间
4 小时
最后登录
2019-8-13
发表于 2019-8-12 12:43:41 | 显示全部楼层
提示: 作者被禁止或删除 内容自动屏蔽
回复 支持 1 反对 0

使用道具 举报

金鸡奖主角

高清币
22
金钱
4460
鲜花
0
在线时间
885 小时
最后登录
2019-8-23
发表于 2019-8-12 08:23:34 | 显示全部楼层

其实我一直觉得楼主的品味不错!呵呵!中国高清论坛太棒了!
回复 支持 反对

使用道具 举报

人气偶像

高清币
0
金钱
1663
鲜花
0
在线时间
254 小时
最后登录
2019-8-23
发表于 2019-8-12 08:26:46 | 显示全部楼层

既然你诚信诚意的推荐了,那我就勉为其难的看看吧!中国高清论坛不走平凡路。
回复 支持 反对

使用道具 举报

人气偶像

高清币
347
金钱
1582
鲜花
0
在线时间
261 小时
最后登录
2019-8-17
发表于 2019-8-12 08:28:18 | 显示全部楼层

楼主,大恩不言谢了!中国高清论坛是最棒的!
回复 支持 反对

使用道具 举报

知名艺人

高清币
0
金钱
190
鲜花
0
在线时间
47 小时
最后登录
2019-8-19
发表于 2019-8-12 08:29:26 | 显示全部楼层
楼主发贴辛苦了,谢谢楼主分享!我觉得中国高清论坛是注册对了!
回复 支持 反对

使用道具 举报

人气偶像

高清币
305
金钱
399
鲜花
0
在线时间
23 小时
最后登录
2019-8-23
发表于 2019-8-12 08:29:52 | 显示全部楼层
楼主发贴辛苦了,谢谢楼主分享!
回复 支持 反对

使用道具 举报

知名艺人

高清币
0
金钱
190
鲜花
0
在线时间
47 小时
最后登录
2019-8-19
发表于 2019-8-12 08:30:40 | 显示全部楼层
楼主发贴辛苦了,谢谢楼主分享!我觉得中国高清论坛是注册对了!
回复 支持 反对

使用道具 举报

知名艺人

高清币
30
金钱
226
鲜花
0
在线时间
18 小时
最后登录
2019-8-17
发表于 2019-8-12 08:30:58 | 显示全部楼层

楼主太厉害了!楼主,电影应该很好看我觉得中国高清论坛真是个好地方!
回复 支持 反对

使用道具 举报

金鸡奖主角

高清币
674
金钱
2423
鲜花
0
在线时间
213 小时
最后登录
2019-8-23
发表于 2019-8-12 08:31:56 | 显示全部楼层

这东西我收了!谢谢楼主!中国高清论坛真好!
回复 支持 反对

使用道具 举报

知名艺人

高清币
216
金钱
236
鲜花
0
在线时间
0 小时
最后登录
2019-8-16
发表于 2019-8-12 08:32:17 | 显示全部楼层
确实不用下载 而且还是免费的
回复 支持 反对

使用道具 举报

懒得打字嘛,点击右侧快捷回复 【右侧内容,后台自定义】
您需要登录后才可以回帖 登录 | 立即注册

本版积分规则

QQ|手机版|小黑屋|中国高清论坛 ( 黔ICP备16007815号-1 )

GMT+8, 2019-8-24 01:30 , Processed in 0.091636 second(s), 26 queries .

Powered by Discuz! X3.4

© 2001-2017 Comsenz Inc.

快速回复 返回顶部 返回列表