请选择 进入手机版 | 继续访问电脑版

中国高清论坛

 找回密码
 立即注册
搜索
查看: 3558|回复: 999

[动作片] 哥斯拉2:怪兽之王 Godzilla.King.of.the.Monsters.2019.1080p.WEB-DL.DD5.1.H264-FGT

  [复制链接]

超级版主

高清币
16794
金钱
38990
鲜花
0
在线时间
12004 小时
最后登录
2019-8-24
发表于 2019-8-13 12:36:55 | 显示全部楼层 |阅读模式


◎译  名 哥斯拉2:怪兽之王/哥斯拉:怪兽之王/哥斯拉2/哥斯拉2018/哥斯拉II:王者巨兽(港)/哥吉拉II怪兽之王(台)
◎片  名 Godzilla: King of the Monsters/Godzilla 2
◎年  代 2019
◎国  家 美国
◎类  别 动作/冒险/奇幻
◎语  言 英语
◎IMDb评分 6.4/10 from 58649 user
◎IMDb链接 https://www.imdb.com/title/tt3741700/
◎片  长 2 h 11 min
◎导  演 迈克尔·道赫蒂 Michael Dougherty
◎主  演 凯尔·钱德勒 Kyle Chandler
       维拉·法米加 Vera Farmiga
       米莉·波比·布朗 Millie Bobby Brown
       章子怡 Ziyi Zhang
       渡边谦 Ken Watanabe




◎简  介


  随着《哥斯拉》和《金刚:骷髅岛》在全球范围内取得成功,传奇影业和华纳兄弟影业联手开启了怪兽宇宙系列电影的新篇章—一部史诗级动作冒险巨制。在这部电影中,哥斯拉将和众多大家在流行文化中所熟知的怪兽展开较量。全新故事中,研究神秘动物学的机构“帝王组织”成员将勇敢直面巨型怪兽,其中强大的哥斯拉也将和魔斯拉、拉顿和它的死对头——三头王基多拉展开激烈对抗。当这些只存在于传说里的超级生物再度崛起时,它们将展开王者争霸,人类的命运岌岌可危……

花絮

《.哥斯拉2:怪兽之王》是“怪兽宇宙”系列电影第三部。

.本片中119.8米高的哥斯拉,也超越了第一部中的设定。

.三头王者基多拉,根植于南极洲冻土之下的帝王组织防御工事里,它潜伏在冰雪坟墓之下,是迄今发现最大的超级物种,超过150米的体型让哥斯拉都相形见绌。
  1. Video
  2. ID : 1
  3. Format : AVC
  4. Format/Info : Advanced Video Codec
  5. Format profile : High@L4
  6. Format settings : CABAC / 5 Ref Frames
  7. Format settings, CABAC : Yes
  8. Format settings, Reference frames : 5 frames
  9. Codec ID : V_MPEG4/ISO/AVC
  10. Duration : 2 h 11 min
  11. Bit rate : 4 514 kb/s
  12. Width : 1 920 pixels
  13. Height : 800 pixels
  14. Display aspect ratio : 2.40:1
  15. Frame rate mode : Constant
  16. Frame rate : 23.976 FPS
  17. Color space : YUV
  18. Chroma subsampling : 4:2:0
  19. Bit depth : 8 bits
  20. Scan type : Progressive
  21. Bits/(Pixel*Frame) : 0.123
  22. Stream size : 4.15 GiB (92%)
  23. Title : Godzilla.King.of.the.Monsters.2019.1080p.WEB-DL.DD5.1.H264-FGT
  24. Language : English
  25. Default : Yes
  26. Forced : No
  27. Color range : Limited
  28. Color primaries : BT.709
  29. Transfer characteristics : BT.709
  30. Matrix coefficients : BT.709

  31. Audio
  32. ID : 2
  33. Format : AC-3
  34. Format/Info : Audio Coding 3
  35. Commercial name : Dolby Digital
  36. Codec ID : A_AC3
  37. Duration : 2 h 11 min
  38. Bit rate mode : Constant
  39. Bit rate : 384 kb/s
  40. Channel(s) : 6 channels
  41. Channel layout : L R C LFE Ls Rs
  42. Sampling rate : 48.0 kHz
  43. Frame rate : 31.250 FPS (1536 SPF)
  44. Bit depth : 16 bits
  45. Compression mode : Lossy
  46. Stream size : 362 MiB (8%)
  47. Title : Godzilla.King.of.the.Monsters.2019.1080p.WEB-DL.DD5.1.H264-FGT
  48. Language : English
  49. Service kind : Complete Main
  50. Default : Yes
  51. Forced : No

  52. Text #1
  53. ID : 3
  54. Format : UTF-8
  55. Codec ID : S_TEXT/UTF8
  56. Codec ID/Info : UTF-8 Plain Text
  57. Duration : 2 h 10 min
  58. Bit rate : 44 b/s
  59. Count of elements : 1482
  60. Stream size : 42.7 KiB (0%)
  61. Language : English
  62. Default : Yes
  63. Forced : No

  64. Text #2
  65. ID : 4
  66. Format : UTF-8
  67. Codec ID : S_TEXT/UTF8
  68. Codec ID/Info : UTF-8 Plain Text
  69. Duration : 2 h 11 min
  70. Bit rate : 53 b/s
  71. Count of elements : 1857
  72. Stream size : 51.7 KiB (0%)
  73. Title : SDH
  74. Language : English
  75. Default : No
  76. Forced : No

  77. Menu
  78. 00:00:00.000 : en:1
  79. 00:10:52.902 : en:2
  80. 00:18:05.834 : en:3
  81. 00:30:26.324 : en:4
  82. 00:45:17.631 : en:5
  83. 00:54:10.038 : en:6
  84. 01:05:40.645 : en:7
  85. 01:09:30.583 : en:8
  86. 01:19:30.307 : en:9
  87. 01:30:05.233 : en:10
  88. 01:38:35.868 : en:11
  89. 01:49:57.883 : en:12
  90. 01:59:27.826 : en:13
复制代码







游客,如果您要查看本帖隐藏内容请回复,您还可以免扣高清币免回复下载:https://www.85lou.com/plugin.php?id=wyfaka_url:url
回复

使用道具 举报

超级明星

高清币
152
金钱
11825
鲜花
0
在线时间
2254 小时
最后登录
2019-8-24
发表于 2019-8-13 13:38:55 | 显示全部楼层

我看不错噢 谢谢楼主!中国高清论坛越来越好!
回复 支持 2 反对 0

使用道具 举报

金鸡奖主角

高清币
510
金钱
4025
鲜花
0
在线时间
313 小时
最后登录
2019-8-23
发表于 2019-8-13 13:38:42 | 显示全部楼层

楼主太厉害了!楼主,电影应该很好看我觉得中国高清论坛真是个好地方!
回复 支持 2 反对 0

使用道具 举报

知名艺人

高清币
33
金钱
526
鲜花
0
在线时间
219 小时
最后登录
2019-8-23
发表于 2019-8-13 13:38:17 | 显示全部楼层

这个帖子不回对不起自己!我想我是一天也不能离开中国高清论坛
回复 支持 2 反对 0

使用道具 举报

知名艺人

高清币
24
金钱
289
鲜花
0
在线时间
40 小时
最后登录
2019-8-17
发表于 2019-8-13 13:38:17 | 显示全部楼层

这东西我收了!谢谢楼主!中国高清论坛真好!
回复 支持 2 反对 0

使用道具 举报

金鸡奖主角

高清币
510
金钱
4025
鲜花
0
在线时间
313 小时
最后登录
2019-8-23
发表于 2019-8-13 13:38:15 | 显示全部楼层
楼主发贴辛苦了,谢谢楼主分享!我觉得中国高清论坛是注册对了!
回复 支持 2 反对 0

使用道具 举报

永恒神话

高清币
27970
金钱
38776
鲜花
0
在线时间
946 小时
最后登录
2019-8-24
发表于 2019-8-13 12:38:14 | 显示全部楼层
楼主发帖辛苦了,感谢楼主无私的分享!永远支持高清论坛!
回复 支持 1 反对 0

使用道具 举报

知名艺人

高清币
24
金钱
289
鲜花
0
在线时间
40 小时
最后登录
2019-8-17
发表于 2019-8-13 13:37:43 | 显示全部楼层

这东西我收了!谢谢楼主!中国高清论坛真好!
回复 支持 1 反对 0

使用道具 举报

金鸡奖主角

高清币
8
金钱
4252
鲜花
0
在线时间
1862 小时
最后登录
2019-8-22
发表于 2019-8-13 13:37:47 | 显示全部楼层
楼主发贴辛苦了,谢谢楼主分享!我觉得中国高清论坛是注册对了!
回复 支持 1 反对 0

使用道具 举报

金鸡奖主角

高清币
0
金钱
6223
鲜花
0
在线时间
879 小时
最后登录
2019-8-17
发表于 2019-8-13 12:39:05 | 显示全部楼层

这个帖子不回对不起自己!我想我是一天也不能离开中国高清论坛
回复 支持 反对

使用道具 举报

金鸡奖主角

高清币
185
金钱
6130
鲜花
0
在线时间
771 小时
最后登录
2019-8-23
发表于 2019-8-13 12:39:33 | 显示全部楼层

这个帖子不回对不起自己!我想我是一天也不能离开中国高清论坛
回复 支持 反对

使用道具 举报

跑龙套

高清币
1
金钱
13
鲜花
0
在线时间
2 小时
最后登录
2019-8-23
发表于 2019-8-13 12:41:23 | 显示全部楼层
这个帖子不回对不起自己!我想我是一天也不能离开中国高清论坛
回复 支持 反对

使用道具 举报

superstar

高清币
4796
金钱
5480
鲜花
0
在线时间
253 小时
最后登录
2019-8-23
发表于 2019-8-13 12:44:45 | 显示全部楼层
lz分享的电影太棒了!
回复 支持 反对

使用道具 举报

超级明星

高清币
5
金钱
8963
鲜花
0
在线时间
4298 小时
最后登录
2019-8-23
发表于 2019-8-13 12:47:15 | 显示全部楼层

楼主太厉害了!楼主,电影应该很好看我觉得中国高清论坛真是个好地方!
回复 支持 反对

使用道具 举报

永恒神话

高清币
12076
金钱
36271
鲜花
10
在线时间
2415 小时
最后登录
2019-8-23
发表于 2019-8-13 12:50:37 | 显示全部楼层

论坛不能没有像楼主这样的人才啊!我会一直支持中国高清论坛
回复 支持 反对

使用道具 举报

人气偶像

高清币
0
金钱
613
鲜花
0
在线时间
71 小时
最后登录
2019-8-23
发表于 2019-8-13 12:50:49 | 显示全部楼层
忘记下过没有,多谢分享
回复 支持 反对

使用道具 举报

懒得打字嘛,点击右侧快捷回复 【右侧内容,后台自定义】
您需要登录后才可以回帖 登录 | 立即注册

本版积分规则

QQ|手机版|小黑屋|中国高清论坛 ( 黔ICP备16007815号-1 )

GMT+8, 2019-8-24 01:53 , Processed in 0.064452 second(s), 26 queries .

Powered by Discuz! X3.4

© 2001-2017 Comsenz Inc.

快速回复 返回顶部 返回列表