请选择 进入手机版 | 继续访问电脑版

中国高清论坛

 找回密码
 立即注册
搜索
查看: 4353|回复: 1496

[动作片] 哥斯拉2:怪兽之王 G.K.o.t.M.2019.1080p.AMZN.WEBRip.DDP5.1.x264-NTG 9.05 GiB

  [复制链接]

超级版主

高清币
16794
金钱
38990
鲜花
0
在线时间
12004 小时
最后登录
2019-8-24
发表于 2019-8-13 16:53:26 | 显示全部楼层 |阅读模式


◎译  名 哥斯拉2:怪兽之王/哥斯拉:怪兽之王/哥斯拉2/哥斯拉2018/哥斯拉II:王者巨兽(港)/哥吉拉II怪兽之王(台)
◎片  名 Godzilla: King of the Monsters/Godzilla 2
◎年  代 2019
◎国  家 美国
◎类  别 动作/冒险/奇幻
◎语  言 英语
◎IMDb评分 6.4/10 from 58649 user
◎IMDb链接 https://www.imdb.com/title/tt3741700/
◎片  长 2 h 11 min
◎导  演 迈克尔·道赫蒂 Michael Dougherty
◎主  演 凯尔·钱德勒 Kyle Chandler
       维拉·法米加 Vera Farmiga
       米莉·波比·布朗 Millie Bobby Brown
       章子怡 Ziyi Zhang
       渡边谦 Ken Watanabe




◎简  介


  随着《哥斯拉》和《金刚:骷髅岛》在全球范围内取得成功,传奇影业和华纳兄弟影业联手开启了怪兽宇宙系列电影的新篇章—一部史诗级动作冒险巨制。在这部电影中,哥斯拉将和众多大家在流行文化中所熟知的怪兽展开较量。全新故事中,研究神秘动物学的机构“帝王组织”成员将勇敢直面巨型怪兽,其中强大的哥斯拉也将和魔斯拉、拉顿和它的死对头——三头王基多拉展开激烈对抗。当这些只存在于传说里的超级生物再度崛起时,它们将展开王者争霸,人类的命运岌岌可危……

花絮

《.哥斯拉2:怪兽之王》是“怪兽宇宙”系列电影第三部。

.本片中119.8米高的哥斯拉,也超越了第一部中的设定。

.三头王者基多拉,根植于南极洲冻土之下的帝王组织防御工事里,它潜伏在冰雪坟墓之下,是迄今发现最大的超级物种,超过150米的体型让哥斯拉都相形见绌。
  1. Video
  2. ID : 1
  3. Format : AVC
  4. Format/Info : Advanced Video Codec
  5. Format profile : High@L4
  6. Format settings : CABAC / 4 Ref Frames
  7. Format settings, CABAC : Yes
  8. Format settings, Reference frames : 4 frames
  9. Codec ID : V_MPEG4/ISO/AVC
  10. Duration : 2 h 11 min
  11. Bit rate mode : Constant
  12. Bit rate : 9 199 kb/s
  13. Nominal bit rate : 10 000 kb/s
  14. Width : 1 920 pixels
  15. Height : 800 pixels
  16. Display aspect ratio : 2.40:1
  17. Frame rate mode : Constant
  18. Frame rate : 23.976 (24000/1001) FPS
  19. Color space : YUV
  20. Chroma subsampling : 4:2:0
  21. Bit depth : 8 bits
  22. Scan type : Progressive
  23. Bits/(Pixel*Frame) : 0.250
  24. Stream size : 8.46 GiB (93%)
  25. Default : Yes
  26. Forced : No
  27. Color range : Limited
  28. Color primaries : BT.709
  29. Transfer characteristics : BT.709
  30. Matrix coefficients : BT.709

  31. Audio
  32. ID : 2
  33. Format : E-AC-3
  34. Format/Info : Enhanced AC-3
  35. Commercial name : Dolby Digital Plus
  36. Codec ID : A_EAC3
  37. Duration : 2 h 11 min
  38. Bit rate mode : Constant
  39. Bit rate : 640 kb/s
  40. Channel(s) : 6 channels
  41. Channel layout : L R C LFE Ls Rs
  42. Sampling rate : 48.0 kHz
  43. Frame rate : 31.250 FPS (1536 SPF)
  44. Compression mode : Lossy
  45. Stream size : 603 MiB (7%)
  46. Language : English
  47. Service kind : Complete Main
  48. Default : Yes
  49. Forced : No

  50. Text #1
  51. ID : 3
  52. Format : UTF-8
  53. Codec ID : S_TEXT/UTF8
  54. Codec ID/Info : UTF-8 Plain Text
  55. Duration : 2 h 10 min
  56. Bit rate : 42 b/s
  57. Count of elements : 1482
  58. Stream size : 40.9 KiB (0%)
  59. Language : English
  60. Default : No
  61. Forced : No

  62. Text #2
  63. ID : 4
  64. Format : UTF-8
  65. Codec ID : S_TEXT/UTF8
  66. Codec ID/Info : UTF-8 Plain Text
  67. Duration : 2 h 11 min
  68. Bit rate : 51 b/s
  69. Count of elements : 1857
  70. Stream size : 49.7 KiB (0%)
  71. Title : SDH
  72. Language : English
  73. Default : No
  74. Forced : No
复制代码







游客,如果您要查看本帖隐藏内容请回复,您还可以免扣高清币免回复下载:https://www.85lou.com/plugin.php?id=wyfaka_url:url
回复

使用道具 举报

金鸡奖主角

高清币
3
金钱
3591
鲜花
0
在线时间
764 小时
最后登录
2019-8-23
发表于 2019-8-13 21:55:40 | 显示全部楼层

楼主太厉害了!楼主,电影应该很好看我觉得中国高清论坛真是个好地方!
回复 支持 1 反对 0

使用道具 举报

知名艺人

高清币
17
金钱
131
鲜花
0
在线时间
16 小时
最后登录
2019-8-18
发表于 2019-8-13 21:55:41 | 显示全部楼层
感谢楼主的无私分享!
回复 支持 1 反对 0

使用道具 举报

金鸡奖主角

高清币
19
金钱
3624
鲜花
0
在线时间
568 小时
最后登录
2019-8-22
发表于 2019-8-13 21:55:48 | 显示全部楼层

这东西我收了!谢谢楼主!中国高清论坛真好!
回复 支持 1 反对 0

使用道具 举报

金鸡奖主角

高清币
30
金钱
4693
鲜花
0
在线时间
647 小时
最后登录
2019-8-23
发表于 2019-8-13 21:56:06 | 显示全部楼层

楼主太厉害了!楼主,电影应该很好看我觉得中国高清论坛真是个好地方!
回复 支持 1 反对 0

使用道具 举报

人气偶像

高清币
78
金钱
626
鲜花
0
在线时间
106 小时
最后登录
2019-8-19
发表于 2019-8-13 21:56:40 | 显示全部楼层
谢谢楼主!谢谢楼主!
回复 支持 1 反对 0

使用道具 举报

人气偶像

高清币
178
金钱
1368
鲜花
0
在线时间
386 小时
最后登录
2019-8-24
发表于 2019-8-13 21:57:07 | 显示全部楼层
6666666666666
回复 支持 1 反对 0

使用道具 举报

知名艺人

高清币
2
金钱
311
鲜花
0
在线时间
41 小时
最后登录
2019-8-16
发表于 2019-8-13 21:57:10 | 显示全部楼层


既然你诚信诚意的推荐了,那我就勉为其难的看看吧!中国高清论坛不走平凡路。
回复 支持 1 反对 0

使用道具 举报

人气偶像

高清币
7
金钱
1014
鲜花
0
在线时间
240 小时
最后登录
2019-8-23
发表于 2019-8-13 21:58:36 | 显示全部楼层
楼主发贴辛苦了,谢谢楼主分享!我觉得中国高清论坛是注册对了!
回复 支持 1 反对 0

使用道具 举报

人气偶像

高清币
12
金钱
1562
鲜花
0
在线时间
753 小时
最后登录
2019-8-24
发表于 2019-8-13 21:58:39 | 显示全部楼层
先谢楼主分享
回复 支持 1 反对 0

使用道具 举报

人气偶像

高清币
318
金钱
494
鲜花
0
在线时间
23 小时
最后登录
2019-8-23
发表于 2019-8-13 16:59:07 | 显示全部楼层

感谢楼主的无私分享!要想中国高清论坛好 就靠你我他
回复 支持 反对

使用道具 举报

超级明星

高清币
2192
金钱
6310
鲜花
0
在线时间
1622 小时
最后登录
2019-8-23
发表于 2019-8-13 16:59:16 | 显示全部楼层

我看不错噢 谢谢楼主!中国高清论坛越来越好!
回复 支持 反对

使用道具 举报

天王巨星

高清币
469
金钱
3046
鲜花
0
在线时间
367 小时
最后登录
2019-8-23
发表于 2019-8-13 16:59:54 | 显示全部楼层
感谢楼主发布!!!
回复 支持 反对

使用道具 举报

知名艺人

高清币
30
金钱
269
鲜花
0
在线时间
49 小时
最后登录
2019-8-24
发表于 2019-8-13 17:00:46 | 显示全部楼层

既然你诚信诚意的推荐了,那我就勉为其难的看看吧!中国高清论坛不走平凡路。
回复 支持 反对

使用道具 举报

跑龙套

高清币
17
金钱
54
鲜花
0
在线时间
8 小时
最后登录
2019-8-18
发表于 2019-8-13 17:04:09 | 显示全部楼层
楼主发贴辛苦了,谢谢楼主分享!我觉得中国高清论坛是注册对了!
回复 支持 反对

使用道具 举报

金鸡奖主角

高清币
70
金钱
3985
鲜花
0
在线时间
1283 小时
最后登录
2019-8-23
发表于 2019-8-13 17:04:14 | 显示全部楼层

这个帖子不回对不起自己!我想我是一天也不能离开中国高清论坛
回复 支持 反对

使用道具 举报

超级明星

高清币
286
金钱
11114
鲜花
0
在线时间
4038 小时
最后登录
2019-8-24
发表于 2019-8-13 17:04:47 | 显示全部楼层

这东西我收了!谢谢楼主!中国高清论坛真好!
回复 支持 反对

使用道具 举报

永恒神话

高清币
27970
金钱
38776
鲜花
0
在线时间
946 小时
最后登录
2019-8-24
发表于 2019-8-13 17:06:21 | 显示全部楼层
楼主发帖辛苦了,感谢楼主无私的分享!永远支持高清论坛!
回复 支持 反对

使用道具 举报

人气偶像

高清币
124
金钱
598
鲜花
0
在线时间
60 小时
最后登录
2019-8-14
发表于 2019-8-13 17:07:28 | 显示全部楼层
楼主发贴辛苦了,谢谢楼主分享!我觉得中国高清论坛是注册对了!
回复 支持 反对

使用道具 举报

懒得打字嘛,点击右侧快捷回复 【右侧内容,后台自定义】
您需要登录后才可以回帖 登录 | 立即注册

本版积分规则

QQ|手机版|小黑屋|中国高清论坛 ( 黔ICP备16007815号-1 )

GMT+8, 2019-8-24 02:18 , Processed in 0.061712 second(s), 26 queries .

Powered by Discuz! X3.4

© 2001-2017 Comsenz Inc.

快速回复 返回顶部 返回列表