请选择 进入手机版 | 继续访问电脑版

中国高清论坛

 找回密码
 立即注册
搜索
查看: 1459|回复: 303

[恐怖片] 女鬼 Stree.2018.12mbps.1080p.WEBHD.ESub-DTOne 10.93 GiB

  [复制链接]

超级版主

高清币
16794
金钱
38988
鲜花
0
在线时间
12004 小时
最后登录
2019-8-23
发表于 2019-8-13 18:36:14 | 显示全部楼层 |阅读模式



◎译  名 女鬼
◎片  名 Stree
◎年  代 2018
◎产  地 印度
◎类  别 恐怖
◎语  言 印地语
◎IMDb评分 7.7/10 from 21001 users
◎IMDb链接 https://www.imdb.com/title/tt8108202/
◎片  长 128分钟
◎导  演 Amar Kaushik
◎主  演 施拉达·卡普尔 Shraddha Kapoor
       拉吉·库玛 Rajkummar Rao
       潘卡·特里帕蒂 Pankaj Tripathy
       阿帕尔夏克提·库拉那 Aparshakti Khurana
       Abhishek Banerjee
       Vijay Raaz
       Aakash Dabhade



◎简  介

  Set in the town of Chanderi, Stree is based on the urban legend of Nale Ba that went viral in Karnataka in the 1990s, and features Shraddha Kapoor and Rajkummar Rao in pivotal roles.

  1. General
  2. Complete name                            : Stree (2018) 12mbps 1080p WEBHD ESub - DTOne.mp4
  3. Format                                   : MPEG-4
  4. Format profile                           : Base Media
  5. Codec ID                                 : isom (isom/iso2/avc1/mp41)
  6. File size                                : 10.9 GiB
  7. Duration                                 : 2 h 8 min
  8. Overall bit rate                         : 12.1 Mb/s
  9. Writing application                      : Lavf58.17.101

  10. Video
  11. ID                                       : 1
  12. Format                                   : AVC
  13. Format/Info                              : Advanced Video Codec
  14. Format profile                           : High@L4
  15. Format settings                          : CABAC / 4 Ref Frames
  16. Format settings, CABAC                   : Yes
  17. Format settings, RefFrames               : 4 frames
  18. Format settings, GOP                     : M=4, N=48
  19. Codec ID                                 : avc1
  20. Codec ID/Info                            : Advanced Video Coding
  21. Duration                                 : 2 h 8 min
  22. Bit rate                                 : 12.0 Mb/s
  23. Width                                    : 1 920 pixels
  24. Height                                   : 800 pixels
  25. Display aspect ratio                     : 2.40:1
  26. Frame rate mode                          : Constant
  27. Frame rate                               : 24.000 FPS
  28. Color space                              : YUV
  29. Chroma subsampling                       : 4:2:0
  30. Bit depth                                : 8 bits
  31. Scan type                                : Progressive
  32. Bits/(Pixel*Frame)                       : 0.326
  33. Stream size                              : 10.8 GiB (98%)
  34. Writing library                          : x264 core 138

  35. Audio
  36. ID                                       : 2
  37. Format                                   : AAC
  38. Format/Info                              : Advanced Audio Codec
  39. Format profile                           : LC
  40. Codec ID                                 : mp4a-40-2
  41. Duration                                 : 2 h 8 min
  42. Bit rate mode                            : Constant
  43. Bit rate                                 : 192 kb/s
  44. Channel(s)                               : 2 channels
  45. Channel positions                        : Front: L R
  46. Sampling rate                            : 48.0 kHz
  47. Frame rate                               : 46.875 FPS (1024 SPF)
  48. Compression mode                         : Lossy
  49. Stream size                              : 177 MiB (2%)
  50. Default                                  : Yes
  51. Alternate group                          : 1
复制代码






游客,如果您要查看本帖隐藏内容请回复,您还可以免扣高清币免回复下载:https://www.85lou.com/plugin.php?id=wyfaka_url:url

回复

使用道具 举报

金鸡奖主角

高清币
1198
金钱
5024
鲜花
0
在线时间
1706 小时
最后登录
2019-8-23
发表于 2019-8-13 21:42:59 | 显示全部楼层
印度鬼片,从未看过。楼主辛苦,谢谢分享。
回复 支持 1 反对 0

使用道具 举报

好莱坞明星

高清币
770
金钱
6169
鲜花
0
在线时间
1061 小时
最后登录
2019-8-23
发表于 2019-8-13 21:44:31 | 显示全部楼层
楼主发贴辛苦了,谢谢楼主分享!我觉得中国高清论坛是注册对了!
回复 支持 1 反对 0

使用道具 举报

跑龙套

高清币
0
金钱
140
鲜花
0
在线时间
28 小时
最后登录
2019-8-23
发表于 2019-8-13 21:48:05 | 显示全部楼层

其实我一直觉得楼主的品味不错!呵呵!中国高清论坛太棒了!
回复 支持 1 反对 0

使用道具 举报

永恒神话

高清币
129
金钱
17835
鲜花
0
在线时间
1253 小时
最后登录
2019-8-24
发表于 2019-8-13 21:53:28 | 显示全部楼层

感谢楼主的无私分享!要想中国高清论坛好 就靠你我他
回复 支持 1 反对 0

使用道具 举报

跑龙套

高清币
0
金钱
140
鲜花
0
在线时间
28 小时
最后登录
2019-8-23
发表于 2019-8-13 21:55:27 | 显示全部楼层

既然你诚信诚意的推荐了,那我就勉为其难的看看吧!中国高清论坛不走平凡路。
回复 支持 1 反对 0

使用道具 举报

人气偶像

高清币
17
金钱
1910
鲜花
0
在线时间
307 小时
最后登录
2019-8-23
发表于 2019-8-13 21:56:14 | 显示全部楼层
楼主发贴辛苦了,谢谢楼主分享!我觉得中国高清论坛是注册对了!
回复 支持 1 反对 0

使用道具 举报

永恒神话

高清币
9590
金钱
19147
鲜花
0
在线时间
1250 小时
最后登录
2019-8-23
发表于 2019-8-13 21:57:47 | 显示全部楼层

这个帖子不回对不起自己!我想我是一天也不能离开中国高清论坛
回复 支持 1 反对 0

使用道具 举报

永恒神话

高清币
129
金钱
17835
鲜花
0
在线时间
1253 小时
最后登录
2019-8-24
发表于 2019-8-13 22:01:40 | 显示全部楼层

既然你诚信诚意的推荐了,那我就勉为其难的看看吧!中国高清论坛不走平凡路。
回复 支持 1 反对 0

使用道具 举报

永恒神话

高清币
129
金钱
17835
鲜花
0
在线时间
1253 小时
最后登录
2019-8-24
发表于 2019-8-13 22:00:41 | 显示全部楼层

楼主,我太崇拜你了!我想我是一天也不能离开中国高清论坛
回复 支持 1 反对 0

使用道具 举报

金鸡奖主角

高清币
1169
金钱
1676
鲜花
0
在线时间
192 小时
最后登录
2019-8-23
发表于 2019-8-13 18:38:36 | 显示全部楼层
楼主发贴辛苦了,谢谢楼主分享!我觉得中国高清论坛是注册对了!
回复 支持 反对

使用道具 举报

好莱坞明星

高清币
124
金钱
7195
鲜花
0
在线时间
1049 小时
最后登录
2019-8-23
发表于 2019-8-13 18:39:36 | 显示全部楼层
楼主发贴辛苦了,谢谢楼主分享!我觉得中国高清论坛是注册对了!
回复 支持 反对

使用道具 举报

天王巨星

高清币
15
金钱
3154
鲜花
0
在线时间
706 小时
最后登录
2019-8-23
发表于 2019-8-13 18:40:34 | 显示全部楼层

楼主发贴辛苦了,谢谢楼主分享!我觉得中国高清论坛是注册对了!
回复 支持 反对

使用道具 举报

金鸡奖主角

高清币
14
金钱
3847
鲜花
0
在线时间
887 小时
最后登录
2019-8-23
发表于 2019-8-13 18:42:40 | 显示全部楼层

楼主太厉害了!楼主,电影应该很好看我觉得中国高清论坛真是个好地方!
回复 支持 反对

使用道具 举报

天王巨星

高清币
3
金钱
2035
鲜花
0
在线时间
264 小时
最后登录
2019-8-20
发表于 2019-8-13 18:42:54 | 显示全部楼层

感谢楼主的无私分享!要想中国高清论坛好 就靠你我他
回复 支持 反对

使用道具 举报

金鸡奖主角

高清币
789
金钱
3458
鲜花
0
在线时间
817 小时
最后登录
2019-8-23
发表于 2019-8-13 18:44:31 | 显示全部楼层
楼主发贴辛苦了,谢谢楼主分享!我觉得中国高清论坛是注册对了!
回复 支持 反对

使用道具 举报

天王巨星

高清币
50
金钱
2472
鲜花
0
在线时间
581 小时
最后登录
2019-8-23
发表于 2019-8-13 18:46:33 | 显示全部楼层
但事实上所所所所所所所所所所所所所所所所所所所所所所所所
回复 支持 反对

使用道具 举报

永恒神话

高清币
5178
金钱
15898
鲜花
0
在线时间
3009 小时
最后登录
2019-8-24
发表于 2019-8-13 18:49:30 | 显示全部楼层
感谢楼主分享高清资源!
回复 支持 反对

使用道具 举报

天王巨星

高清币
602
金钱
1589
鲜花
0
在线时间
593 小时
最后登录
2019-8-23
发表于 2019-8-13 18:51:04 | 显示全部楼层

其实我一直觉得楼主的品味不错!呵呵!中国高清论坛太棒了!
回复 支持 反对

使用道具 举报

懒得打字嘛,点击右侧快捷回复 【右侧内容,后台自定义】
您需要登录后才可以回帖 登录 | 立即注册

本版积分规则

QQ|手机版|小黑屋|中国高清论坛 ( 黔ICP备16007815号-1 )

GMT+8, 2019-8-24 01:42 , Processed in 0.067991 second(s), 26 queries .

Powered by Discuz! X3.4

© 2001-2017 Comsenz Inc.

快速回复 返回顶部 返回列表