请选择 进入手机版 | 继续访问电脑版

中国高清论坛

 找回密码
 立即注册
搜索
查看: 1227|回复: 279

[动作片] 英雄本色2018 [普通话] A.B.T.2018.MULTi.1080p.BluRay.x264.AC3-EXTREME 7.96 GiB

  [复制链接]

超级版主

高清币
16794
金钱
38990
鲜花
0
在线时间
12004 小时
最后登录
2019-8-24
发表于 2019-8-13 21:23:08 | 显示全部楼层 |阅读模式


◎译  名 英雄本色2018/英雄本色4
◎片  名 A Better Tomorrow 2018
◎年  代 2018
◎国  家 中国
◎类  别 动作/剧情/犯罪
◎语  言 普通话
◎IMDb评分 7.7/10 from 69 users
◎IMDB链接 http://www.imdb.com/title/tt5846644
◎片  长 1 h 53 min
◎导  演 丁晟 Sheng Ding
◎主  演 王凯 Kai Wang
       马天宇 Ray Ma
       王大陆 Darren Wang
       余皑磊 Ailei Yu
       林雪 Suet Lam
       吴樾 Yue Wu
       李梦 Meng Li
       张艺上 Yishang Zhang
       姜珮瑶 Peiyao Jiang
       李岷城 Mincheng Li
       宁浩 Hao Ning
       韩寒 Han Han
       丁晟 Sheng Ding
       曾志伟 Eric Tsang

◎简  介

  周凯(王凯 饰)参与走私,被身为缉毒警察的弟弟周超(马天宇 饰)逮捕入狱。三年后,周凯出狱,改过自新。曾经的手下阿仓(余皑磊 饰)已为毒贩头目,为获取周凯的海外客户资料,设计加害周凯。江湖中的好兄弟马柯(王大陆 饰)为了替周凯报仇,失去一条腿。自己的亲弟弟周超不相信哥哥周凯已金盆洗手,不断搜集证据,欲亲手逮捕周凯。最终,周凯与警方合作,逮捕了阿仓,两兄弟重归于好。

  1. General
  2. Unique ID                      : 290018993790063965774679261049135313983 (0xDA2FA05F8F6DD72D2A3341445FF0343F)
  3. Complete name                  : E:\迅雷下载\[ Torrent9.cz ] A.Better.Tomorrow.2018.MULTi.1080p.BluRay.x264.AC3-EXTREME.mkv
  4. Format                         : Matroska
  5. Format version                 : Version 4
  6. File size                      : 7.96 GiB
  7. Duration                       : 1 h 53 min
  8. Overall bit rate               : 9 996 kb/s
  9. Encoded date                   : UTC 2019-08-13 08:07:53
  10. Writing application            : mkvmerge v36.0.0 ('Is That Jazz?') 64-bit
  11. Writing library                : libebml v1.3.9 + libmatroska v1.5.2
  12. FileExtension_Invalid          : mkv mk3d mka mks

  13. Video
  14. ID                             : 3
  15. Format                         : AVC
  16. Format/Info                    : Advanced Video Codec
  17. Format profile                 : High@L4.1
  18. Format settings                : CABAC / 5 Ref Frames
  19. Format settings, CABAC         : Yes
  20. Format settings, Reference fra : 5 frames
  21. Codec ID                       : V_MPEG4/ISO/AVC
  22. Duration                       : 1 h 53 min
  23. Bit rate                       : 8 989 kb/s
  24. Width                          : 1 920 pixels
  25. Height                         : 808 pixels
  26. Display aspect ratio           : 2.40:1
  27. Frame rate mode                : Constant
  28. Frame rate                     : 24.000 FPS
  29. Color space                    : YUV
  30. Chroma subsampling             : 4:2:0
  31. Bit depth                      : 8 bits
  32. Scan type                      : Progressive
  33. Bits/(Pixel*Frame)             : 0.241
  34. Stream size                    : 6.98 GiB (88%)
  35. Writing library                : x264 core 155 r2901 7d0ff22
  36. Encoding settings              : cabac=1 / ref=5 / deblock=1:-3:-3 / analyse=0x3:0x133 / me=umh / subme=9 / psy=1 / psy_rd=1.00:0.00 / mixed_ref=1 / me_range=16 / chroma_me=1 / trellis=2 / 8x8dct=1 / cqm=0 / deadzone=21,11 / fast_pskip=0 / chroma_qp_offset=-2 / threads=24 / lookahead_threads=2 / sliced_threads=0 / nr=0 / decimate=1 / interlaced=0 / bluray_compat=0 / constrained_intra=0 / bframes=3 / b_pyramid=2 / b_adapt=1 / b_bias=0 / direct=3 / weightb=1 / open_gop=0 / weightp=2 / keyint=240 / keyint_min=24 / scenecut=40 / intra_refresh=0 / rc_lookahead=50 / rc=2pass / mbtree=1 / bitrate=8989 / ratetol=1.0 / qcomp=0.60 / qpmin=0 / qpmax=69 / qpstep=4 / cplxblur=20.0 / qblur=0.5 / ip_ratio=1.40 / aq=1:1.00
  37. Language                       : English
  38. Default                        : Yes
  39. Forced                         : No

  40. Audio #1
  41. ID                             : 1
  42. Format                         : AC-3
  43. Format/Info                    : Audio Coding 3
  44. Commercial name                : Dolby Digital
  45. Codec ID                       : A_AC3
  46. Duration                       : 1 h 53 min
  47. Bit rate mode                  : Constant
  48. Bit rate                       : 384 kb/s
  49. Channel(s)                     : 6 channels
  50. Channel layout                 : L R C LFE Ls Rs
  51. Sampling rate                  : 48.0 kHz
  52. Frame rate                     : 31.250 FPS (1536 SPF)
  53. Bit depth                      : 16 bits
  54. Compression mode               : Lossy
  55. Delay relative to video        : 4 ms
  56. Stream size                    : 313 MiB (4%)
  57. Language                       : French
  58. Service kind                   : Complete Main
  59. Default                        : Yes
  60. Forced                         : No

  61. Audio #2
  62. ID                             : 4
  63. Format                         : AC-3
  64. Format/Info                    : Audio Coding 3
  65. Commercial name                : Dolby Digital
  66. Codec ID                       : A_AC3
  67. Duration                       : 1 h 53 min
  68. Bit rate mode                  : Constant
  69. Bit rate                       : 640 kb/s
  70. Channel(s)                     : 6 channels
  71. Channel layout                 : L R C LFE Ls Rs
  72. Sampling rate                  : 48.0 kHz
  73. Frame rate                     : 31.250 FPS (1536 SPF)
  74. Bit depth                      : 16 bits
  75. Compression mode               : Lossy
  76. Stream size                    : 522 MiB (6%)
  77. Language                       : Chinese
  78. Service kind                   : Complete Main
  79. Default                        : No
  80. Forced                         : No

  81. Text
  82. ID                             : 2
  83. Format                         : UTF-8
  84. Codec ID                       : S_TEXT/UTF8
  85. Codec ID/Info                  : UTF-8 Plain Text
  86. Title                          : French
  87. Language                       : French
  88. Default                        : No
  89. Forced                         : No

  90. Menu
  91. 00:00:00.000                   : en:Chapitre 1
  92. 00:10:43.208                   : en:Chapitre 2
  93. 00:20:15.916                   : en:Chapitre 3
  94. 00:30:25.748                   : en:Chapitre 4
  95. 00:39:31.331                   : en:Chapitre 5
  96. 00:50:04.247                   : en:Chapitre 6
  97. 01:02:03.413                   : en:Chapitre 7
  98. 01:09:47.078                   : en:Chapitre 8
  99. 01:21:13.328                   : en:Chapitre 9
  100. 01:30:02.328                   : en:Chapitre 10
  101. 01:39:05.160                   : en:Chapitre 11

复制代码


游客,如果您要查看本帖隐藏内容请回复,您还可以免扣高清币免回复下载:https://www.85lou.com/plugin.php?id=wyfaka_url:url

回复

使用道具 举报

影坛巨星

高清币
3841
金钱
5297
鲜花
0
在线时间
780 小时
最后登录
2019-8-24
发表于 2019-8-13 21:50:22 | 显示全部楼层

这东西我收了!谢谢楼主!中国高清论坛真好!
回复 支持 1 反对 0

使用道具 举报

影坛巨星

高清币
562
金钱
10056
鲜花
0
在线时间
3881 小时
最后登录
2019-8-23
发表于 2019-8-13 21:52:09 | 显示全部楼层

这个帖子不回对不起自己!我想我是一天也不能离开中国高清论坛
回复 支持 1 反对 0

使用道具 举报

天王巨星

高清币
247
金钱
1539
鲜花
0
在线时间
106 小时
最后登录
2019-8-23
发表于 2019-8-13 21:55:39 | 显示全部楼层

其实我一直觉得楼主的品味不错!呵呵!中国高清论坛太棒了!
回复 支持 1 反对 0

使用道具 举报

超级明星

高清币
1303
金钱
8312
鲜花
0
在线时间
1174 小时
最后登录
2019-8-23
发表于 2019-8-13 21:56:58 | 显示全部楼层
楼主发贴辛苦了,谢谢楼主分享!我觉得中国高清论坛是注册对了!
回复 支持 1 反对 0

使用道具 举报

知名艺人

高清币
5
金钱
232
鲜花
0
在线时间
20 小时
最后登录
2019-8-17
发表于 2019-8-13 21:57:14 | 显示全部楼层

这个帖子不回对不起自己!我想我是一天也不能离开中国高清论坛
回复 支持 1 反对 0

使用道具 举报

知名艺人

高清币
2
金钱
311
鲜花
0
在线时间
41 小时
最后登录
2019-8-16
发表于 2019-8-13 21:57:52 | 显示全部楼层


既然你诚信诚意的推荐了,那我就勉为其难的看看吧!中国高清论坛不走平凡路。
回复 支持 1 反对 0

使用道具 举报

金鸡奖主角

高清币
27
金钱
3725
鲜花
0
在线时间
504 小时
最后登录
2019-8-23
发表于 2019-8-13 22:00:45 | 显示全部楼层

这个帖子不回对不起自己!我想我是一天也不能离开中国高清论坛
回复 支持 1 反对 0

使用道具 举报

永恒神话

高清币
4757
金钱
11632
鲜花
0
在线时间
415 小时
最后登录
2019-8-23
发表于 2019-8-13 21:58:57 | 显示全部楼层
楼主发贴辛苦了,谢谢楼主分享!我觉得中国高清论坛是注册对了!
回复 支持 1 反对 0

使用道具 举报

金鸡奖主角

高清币
1198
金钱
5024
鲜花
0
在线时间
1706 小时
最后登录
2019-8-23
发表于 2019-8-13 21:28:07 | 显示全部楼层
楼主辛苦了,谢谢楼主,谢谢分享。
回复 支持 反对

使用道具 举报

金鸡奖主角

高清币
65
金钱
5456
鲜花
0
在线时间
1953 小时
最后登录
2019-8-24
发表于 2019-8-13 21:29:01 | 显示全部楼层

楼主太厉害了!楼主,电影应该很好看我觉得中国高清论坛真是个好地方!
回复 支持 反对

使用道具 举报

天王巨星

高清币
471
金钱
2632
鲜花
0
在线时间
530 小时
最后登录
2019-8-24
发表于 2019-8-13 21:30:29 | 显示全部楼层

这个帖子不回对不起自己!我想我是一天也不能离开中国高清论坛
回复 支持 反对

使用道具 举报

人气偶像

高清币
1
金钱
1425
鲜花
0
在线时间
251 小时
最后登录
2019-8-13
发表于 2019-8-13 21:38:12 | 显示全部楼层
顶顶顶顶顶顶顶顶顶顶顶顶顶
回复 支持 反对

使用道具 举报

金鸡奖主角

高清币
477
金钱
5280
鲜花
0
在线时间
362 小时
最后登录
2019-8-23
发表于 2019-8-13 21:38:45 | 显示全部楼层

这个帖子不回对不起自己!我想我是一天也不能离开中国高清论坛
回复 支持 反对

使用道具 举报

superstar

高清币
4796
金钱
5480
鲜花
0
在线时间
253 小时
最后登录
2019-8-23
发表于 2019-8-13 21:39:42 | 显示全部楼层
来高清论坛看看有什么好电影
回复 支持 反对

使用道具 举报

金鸡奖主角

高清币
1230
金钱
2157
鲜花
0
在线时间
164 小时
最后登录
2019-8-23
发表于 2019-8-13 21:40:00 | 显示全部楼层

楼主太厉害了!楼主,电影应该很好看我觉得中国高清论坛真是个好地方!
回复 支持 反对

使用道具 举报

好莱坞明星

高清币
770
金钱
6169
鲜花
0
在线时间
1061 小时
最后登录
2019-8-23
发表于 2019-8-13 21:49:22 | 显示全部楼层
楼主发贴辛苦了,谢谢楼主分享!我觉得中国高清论坛是注册对了!
回复 支持 反对

使用道具 举报

金鸡奖主角

高清币
916
金钱
2270
鲜花
0
在线时间
365 小时
最后登录
2019-8-23
发表于 2019-8-13 21:49:41 | 显示全部楼层

我看不错噢 谢谢楼主!中国高清论坛越来越好!
回复 支持 反对

使用道具 举报

懒得打字嘛,点击右侧快捷回复 【右侧内容,后台自定义】
您需要登录后才可以回帖 登录 | 立即注册

本版积分规则

QQ|手机版|小黑屋|中国高清论坛 ( 黔ICP备16007815号-1 )

GMT+8, 2019-8-24 02:45 , Processed in 0.076986 second(s), 26 queries .

Powered by Discuz! X3.4

© 2001-2017 Comsenz Inc.

快速回复 返回顶部 返回列表