请选择 进入手机版 | 继续访问电脑版

中国高清论坛

 找回密码
 立即注册
搜索
查看: 627|回复: 136

[恐怖片] 魔童/灵异乍现(台) Brightburn.2019.MULTi.1080p.BluRay.x264.AC3-EXTREME 6.80 GiB

  [复制链接]

超级版主

高清币
16794
金钱
38988
鲜花
0
在线时间
12004 小时
最后登录
2019-8-23
发表于 2019-8-13 21:27:02 | 显示全部楼层 |阅读模式



◎译  名 魔童/明亮的燃烧/灼烧/灵异乍现(台)
◎片  名 Brightburn
◎年  代 2019
◎国  家 美国
◎类  别 恐怖/科幻
◎语  言 英语
◎IMDb评分 6.3/10 from 25018 users
◎IMDB链接 https://www.imdb.com/title/tt7752126/
◎片  长 1 h 30 min
◎导  演 大卫·雅洛维斯基 David Yarovesky
◎主  演 伊丽莎白·班克斯 Elizabeth Banks
       大卫·丹曼 David Denman
       梅瑞迪斯·海格纳 Meredith Hagner
       马特·琼斯 Matt Jones


◎简  介

  一对没有孩子的乡村夫妻从家附近的宇宙飞船里捡到了一个婴儿抚养长大,渐渐的发现这个孩子有点与众不同,各种超自然能力在他身上显现出来,他披上了斗篷...但穿上斗篷的不一定都是英雄.


  1. General
  2. Unique ID                      : 183258000527564029035079625089134557322 (0x89DE3502F6717B7A9E6C79FF27DEF88A)
  3. Complete name                  : E:\迅雷下载\[ Torrent9.cz ] Brightburn.2019.MULTi.1080p.BluRay.x264.AC3-EXTREME.mkv
  4. Format                         : Matroska
  5. Format version                 : Version 4
  6. File size                      : 6.80 GiB
  7. Duration                       : 1 h 30 min
  8. Overall bit rate               : 10.8 Mb/s
  9. Encoded date                   : UTC 2019-08-12 18:05:15
  10. Writing application            : mkvmerge v36.0.0 ('Is That Jazz?') 64-bit
  11. Writing library                : libebml v1.3.9 + libmatroska v1.5.2
  12. FileExtension_Invalid          : mkv mk3d mka mks

  13. Video
  14. ID                             : 4
  15. Format                         : AVC
  16. Format/Info                    : Advanced Video Codec
  17. Format profile                 : High@L4.1
  18. Format settings                : CABAC / 5 Ref Frames
  19. Format settings, CABAC         : Yes
  20. Format settings, Reference fra : 5 frames
  21. Codec ID                       : V_MPEG4/ISO/AVC
  22. Duration                       : 1 h 30 min
  23. Bit rate                       : 8 862 kb/s
  24. Width                          : 1 920 pixels
  25. Height                         : 808 pixels
  26. Display aspect ratio           : 2.40:1
  27. Frame rate mode                : Constant
  28. Frame rate                     : 23.976 (24000/1001) FPS
  29. Color space                    : YUV
  30. Chroma subsampling             : 4:2:0
  31. Bit depth                      : 8 bits
  32. Scan type                      : Progressive
  33. Bits/(Pixel*Frame)             : 0.238
  34. Stream size                    : 5.47 GiB (80%)
  35. Writing library                : x264 core 158 r2984 3759fcb
  36. Encoding settings              : cabac=1 / ref=5 / deblock=1:-3:-3 / analyse=0x3:0x113 / me=umh / subme=8 / psy=1 / psy_rd=1.00:0.00 / mixed_ref=1 / me_range=16 / chroma_me=1 / trellis=1 / 8x8dct=1 / cqm=0 / deadzone=21,11 / fast_pskip=1 / chroma_qp_offset=-2 / threads=25 / lookahead_threads=4 / sliced_threads=0 / nr=0 / decimate=1 / interlaced=0 / bluray_compat=0 / constrained_intra=0 / bframes=3 / b_pyramid=2 / b_adapt=1 / b_bias=0 / direct=3 / weightb=1 / open_gop=0 / weightp=2 / keyint=250 / keyint_min=23 / scenecut=40 / intra_refresh=0 / rc_lookahead=50 / rc=2pass / mbtree=1 / bitrate=8862 / ratetol=1.0 / qcomp=0.60 / qpmin=0 / qpmax=69 / qpstep=4 / cplxblur=20.0 / qblur=0.5 / ip_ratio=1.40 / aq=1:1.00
  37. Language                       : English
  38. Default                        : Yes
  39. Forced                         : No

  40. Audio #1
  41. ID                             : 1
  42. Format                         : AC-3
  43. Format/Info                    : Audio Coding 3
  44. Commercial name                : Dolby Digital
  45. Codec ID                       : A_AC3
  46. Duration                       : 1 h 30 min
  47. Bit rate mode                  : Constant
  48. Bit rate                       : 384 kb/s
  49. Channel(s)                     : 6 channels
  50. Channel layout                 : L R C LFE Ls Rs
  51. Sampling rate                  : 48.0 kHz
  52. Frame rate                     : 31.250 FPS (1536 SPF)
  53. Bit depth                      : 16 bits
  54. Compression mode               : Lossy
  55. Stream size                    : 249 MiB (4%)
  56. Language                       : French
  57. Service kind                   : Complete Main
  58. Default                        : Yes
  59. Forced                         : No

  60. Audio #2
  61. ID                             : 5
  62. Format                         : DTS
  63. Format/Info                    : Digital Theater Systems
  64. Codec ID                       : A_DTS
  65. Duration                       : 1 h 30 min
  66. Bit rate mode                  : Constant
  67. Bit rate                       : 1 509 kb/s
  68. Channel(s)                     : 6 channels
  69. Channel layout                 : C L R Ls Rs LFE
  70. Sampling rate                  : 48.0 kHz
  71. Frame rate                     : 93.750 FPS (512 SPF)
  72. Bit depth                      : 24 bits
  73. Compression mode               : Lossy
  74. Stream size                    : 977 MiB (14%)
  75. Language                       : English
  76. Default                        : No
  77. Forced                         : No

  78. Text #1
  79. ID                             : 2
  80. Format                         : UTF-8
  81. Codec ID                       : S_TEXT/UTF8
  82. Codec ID/Info                  : UTF-8 Plain Text
  83. Title                          : Forced
  84. Language                       : French
  85. Default                        : Yes
  86. Forced                         : Yes

  87. Text #2
  88. ID                             : 3
  89. Format                         : UTF-8
  90. Codec ID                       : S_TEXT/UTF8
  91. Codec ID/Info                  : UTF-8 Plain Text
  92. Title                          : French
  93. Language                       : French
  94. Default                        : No
  95. Forced                         : No

复制代码

游客,如果您要查看本帖隐藏内容请回复,您还可以免扣高清币免回复下载:https://www.85lou.com/plugin.php?id=wyfaka_url:url

回复

使用道具 举报

人气偶像

高清币
14
金钱
1094
鲜花
0
在线时间
207 小时
最后登录
2019-8-23
发表于 2019-8-13 21:51:58 | 显示全部楼层

楼主,大恩不言谢了!中国高清论坛是最棒的!
回复 支持 1 反对 0

使用道具 举报

影坛巨星

高清币
3841
金钱
5297
鲜花
0
在线时间
780 小时
最后登录
2019-8-24
发表于 2019-8-13 21:50:39 | 显示全部楼层

这个帖子不回对不起自己!我想我是一天也不能离开中国高清论坛
回复 支持 1 反对 0

使用道具 举报

金鸡奖主角

高清币
916
金钱
2270
鲜花
0
在线时间
365 小时
最后登录
2019-8-23
发表于 2019-8-13 21:49:24 | 显示全部楼层

我看不错噢 谢谢楼主!中国高清论坛越来越好!
回复 支持 1 反对 0

使用道具 举报

知名艺人

高清币
161
金钱
273
鲜花
0
在线时间
22 小时
最后登录
2019-8-23
发表于 2019-8-13 21:41:10 | 显示全部楼层

这个帖子不回对不起自己!我想我是一天也不能离开中国高清论坛
回复 支持 1 反对 0

使用道具 举报

金鸡奖主角

高清币
1230
金钱
2157
鲜花
0
在线时间
164 小时
最后登录
2019-8-23
发表于 2019-8-13 21:39:43 | 显示全部楼层
楼主发贴辛苦了,谢谢楼主分享!我觉得中国高清论坛是注册对了!
回复 支持 1 反对 0

使用道具 举报

人气偶像

高清币
189
金钱
417
鲜花
0
在线时间
44 小时
最后登录
2019-8-15
发表于 2019-8-13 21:38:51 | 显示全部楼层
楼主发贴辛苦了,谢谢楼主分享!我觉得中国高清论坛是注册对了!
回复 支持 1 反对 0

使用道具 举报

superstar

高清币
4796
金钱
5480
鲜花
0
在线时间
253 小时
最后登录
2019-8-23
发表于 2019-8-13 21:38:32 | 显示全部楼层
高清论坛很nice
回复 支持 1 反对 0

使用道具 举报

天王巨星

高清币
60
金钱
1991
鲜花
0
在线时间
290 小时
最后登录
2019-8-23
发表于 2019-8-13 21:55:16 | 显示全部楼层

楼主,大恩不言谢了!中国高清论坛是最棒的!
回复 支持 反对

使用道具 举报

知名艺人

高清币
2
金钱
311
鲜花
0
在线时间
41 小时
最后登录
2019-8-16
发表于 2019-8-13 21:56:53 | 显示全部楼层


既然你诚信诚意的推荐了,那我就勉为其难的看看吧!中国高清论坛不走平凡路。
回复 支持 反对

使用道具 举报

懒得打字嘛,点击右侧快捷回复 【右侧内容,后台自定义】
您需要登录后才可以回帖 登录 | 立即注册

本版积分规则

QQ|手机版|小黑屋|中国高清论坛 ( 黔ICP备16007815号-1 )

GMT+8, 2019-8-24 01:43 , Processed in 0.056299 second(s), 26 queries .

Powered by Discuz! X3.4

© 2001-2017 Comsenz Inc.

快速回复 返回顶部 返回列表