请选择 进入手机版 | 继续访问电脑版

中国高清论坛

 找回密码
 立即注册
搜索
查看: 517|回复: 108

[动作片] 宿敌 Enemy.Within.2019.1080p.WEB-DL.DD5.1.H264-FGT 4.24 GiB

  [复制链接]

超级版主

高清币
16794
金钱
38988
鲜花
0
在线时间
12004 小时
最后登录
2019-8-23
发表于 2019-8-13 22:13:47 | 显示全部楼层 |阅读模式



◎译  名 宿敌
◎片  名 Enemy Within
◎年  代 2019
◎国  家 美国
◎类  别 动作/剧情/历史
◎语  言 英语
◎IMDb评分 6.2/10 from 15 users
◎IMDb链接 https://www.imdb.com/title/tt6525952/
◎片  长 1 h 49 min
◎导  演 加布里埃尔·罗伯逊 Gabriel Robertson
◎主  演 福岛莉拉 Rila Fukushima
       比尤拉·寇尔 Beulah Koale
       约瑟夫·纳瓦胡 Joseph Naufahu



◎简  介

  当一名日本飞行员坠毁在夏威夷的尼豪岛上时,他受到当地人的礼貌和传统的夏威夷款待,直到他们发现他是最近袭击珍珠港的一员

  1. Video
  2. ID : 1
  3. Format : AVC
  4. Format/Info : Advanced Video Codec
  5. Format profile : High@L4
  6. Format settings : CABAC / 4 Ref Frames
  7. Format settings, CABAC : Yes
  8. Format settings, Reference frames : 4 frames
  9. Codec ID : V_MPEG4/ISO/AVC
  10. Duration : 1 h 49 min
  11. Bit rate : 5 174 kb/s
  12. Width : 1 920 pixels
  13. Height : 1 036 pixels
  14. Display aspect ratio : 1.85:1
  15. Frame rate mode : Constant
  16. Frame rate : 24.000 FPS
  17. Color space : YUV
  18. Chroma subsampling : 4:2:0
  19. Bit depth : 8 bits
  20. Scan type : Progressive
  21. Bits/(Pixel*Frame) : 0.108
  22. Stream size : 3.95 GiB (93%)
  23. Title : Enemy.Within.2019.1080p.WEB-DL.DD5.1.H264-FGT
  24. Language : English
  25. Default : Yes
  26. Forced : No
  27. Color range : Limited
  28. Color primaries : BT.709
  29. Transfer characteristics : BT.709
  30. Matrix coefficients : BT.709

  31. Audio
  32. ID : 2
  33. Format : AC-3
  34. Format/Info : Audio Coding 3
  35. Commercial name : Dolby Digital
  36. Codec ID : A_AC3
  37. Duration : 1 h 49 min
  38. Bit rate mode : Constant
  39. Bit rate : 384 kb/s
  40. Channel(s) : 6 channels
  41. Channel layout : L R C LFE Ls Rs
  42. Sampling rate : 48.0 kHz
  43. Frame rate : 31.250 FPS (1536 SPF)
  44. Bit depth : 16 bits
  45. Compression mode : Lossy
  46. Stream size : 300 MiB (7%)
  47. Title : Enemy.Within.2019.1080p.WEB-DL.DD5.1.H264-FGT
  48. Language : English
  49. Service kind : Complete Main
  50. Default : Yes
  51. Forced : No

  52. Text
  53. ID : 3
  54. Format : UTF-8
  55. Codec ID : S_TEXT/UTF8
  56. Codec ID/Info : UTF-8 Plain Text
  57. Duration : 1 h 47 min
  58. Bit rate : 52 b/s
  59. Count of elements : 1160
  60. Stream size : 41.3 KiB (0%)
  61. Language : English
  62. Default : Yes
  63. Forced : No

  64. Menu
  65. 00:00:00.000 : en:Chapter 1
  66. 00:10:38.638 : en:Chapter 2
  67. 00:20:14.213 : en:Chapter 3
  68. 00:31:49.908 : en:Chapter 4
  69. 00:40:06.404 : en:Chapter 5
  70. 00:50:42.039 : en:Chapter 6
  71. 01:01:27.684 : en:Chapter 7
  72. 01:10:35.231 : en:Chapter 8
  73. 01:20:48.844 : en:Chapter 9
  74. 01:30:12.407 : en:Chapter 10
  75. 01:45:17.311 : en:Chapter 11
复制代码








游客,如果您要查看本帖隐藏内容请回复,您还可以免扣高清币免回复下载:https://www.85lou.com/plugin.php?id=wyfaka_url:url

回复

使用道具 举报

好莱坞明星

高清币
1339
金钱
4348
鲜花
0
在线时间
478 小时
最后登录
2019-8-24
发表于 2019-8-14 00:59:59 | 显示全部楼层
楼主发贴辛苦了,谢谢楼主分享!我觉得中国高清论坛是注册对了!
回复 支持 1 反对 0

使用道具 举报

永恒神话

高清币
27970
金钱
38776
鲜花
0
在线时间
946 小时
最后登录
2019-8-24
发表于 2019-8-14 01:05:17 | 显示全部楼层
楼主发帖辛苦了,感谢楼主无私的分享!永远支持高清论坛!
回复 支持 1 反对 0

使用道具 举报

永恒神话

高清币
16597
金钱
27625
鲜花
0
在线时间
2683 小时
最后登录
2019-8-23
发表于 2019-8-14 01:10:46 | 显示全部楼层

既然你诚信诚意的推荐了,那我就勉为其难的看看吧!中国高清论坛不走平凡路。
回复 支持 1 反对 0

使用道具 举报

金鸡奖主角

高清币
1176
金钱
2486
鲜花
0
在线时间
570 小时
最后登录
2019-8-24
发表于 2019-8-13 22:17:38 | 显示全部楼层
楼主发贴辛苦了,谢谢楼主分享!我觉得中国高清论坛是注册对了!
回复 支持 反对

使用道具 举报

超级明星

高清币
77
金钱
7970
鲜花
0
在线时间
2569 小时
最后登录
2019-8-23
发表于 2019-8-13 22:18:19 | 显示全部楼层

楼主太厉害了!楼主,电影应该很好看我觉得中国高清论坛真是个好地方!
回复 支持 反对

使用道具 举报

知名艺人

高清币
106
金钱
349
鲜花
0
在线时间
31 小时
最后登录
2019-8-24
发表于 2019-8-13 22:20:20 | 显示全部楼层
楼主发贴辛苦了,谢谢楼主分享!我觉得中国高清论坛是注册对了!
回复 支持 反对

使用道具 举报

superstar

高清币
4653
金钱
8095
鲜花
0
在线时间
555 小时
最后登录
2019-8-23
发表于 2019-8-13 22:25:20 | 显示全部楼层
楼主发贴辛苦了,谢谢楼主分享!
回复 支持 反对

使用道具 举报

天王巨星

高清币
45
金钱
3130
鲜花
0
在线时间
363 小时
最后登录
2019-8-24
发表于 2019-8-13 22:25:57 | 显示全部楼层

其实我一直觉得楼主的品味不错!呵呵!中国高清论坛太棒了!
回复 支持 反对

使用道具 举报

知名艺人

高清币
77
金钱
195
鲜花
0
在线时间
32 小时
最后登录
2019-8-18
发表于 2019-8-13 22:27:00 | 显示全部楼层
谢谢楼主的无私奉献
回复 支持 反对

使用道具 举报

知名艺人

高清币
14
金钱
136
鲜花
0
在线时间
31 小时
最后登录
2019-8-22
发表于 2019-8-13 22:27:06 | 显示全部楼层
谢谢楼主分享
回复 支持 反对

使用道具 举报

好莱坞明星

高清币
1757
金钱
4113
鲜花
0
在线时间
674 小时
最后登录
2019-8-23
发表于 2019-8-13 22:30:18 | 显示全部楼层

这个帖子不回对不起自己!我想我是一天也不能离开中国高清论坛
回复 支持 反对

使用道具 举报

superstar

高清币
2833
金钱
12720
鲜花
0
在线时间
1496 小时
最后登录
2019-8-24
发表于 2019-8-13 22:30:21 | 显示全部楼层

既然你诚信诚意的推荐了,那我就勉为其难的看看吧!中国高清论坛不走平凡路。
回复 支持 反对

使用道具 举报

懒得打字嘛,点击右侧快捷回复 【右侧内容,后台自定义】
您需要登录后才可以回帖 登录 | 立即注册

本版积分规则

QQ|手机版|小黑屋|中国高清论坛 ( 黔ICP备16007815号-1 )

GMT+8, 2019-8-24 01:45 , Processed in 0.060820 second(s), 26 queries .

Powered by Discuz! X3.4

© 2001-2017 Comsenz Inc.

快速回复 返回顶部 返回列表