请选择 进入手机版 | 继续访问电脑版

中国高清论坛

 找回密码
 立即注册
搜索
查看: 874|回复: 188

[犯罪片] 寻找斯蒂夫·麦昆 Finding.Steve.McQueen.2019.BDRip.1080p-Unknown 10.68 GiB

  [复制链接]

超级版主

高清币
16794
金钱
38988
鲜花
0
在线时间
12004 小时
最后登录
2019-8-23
发表于 2019-8-13 22:34:31 | 显示全部楼层 |阅读模式


◎译  名 寻找斯蒂夫·麦昆
◎片  名 Finding Steve McQueen
◎年  代 2018
◎国  家 美国
◎类  别 犯罪/爱情
◎语  言 英语
◎IMDb评分 6.3/10 from 1469 users
◎IMDB链接 https://www.imdb.com/title/tt6032328/[/colo]
◎片  长 1 h 31 min   
◎导  演 马克·斯蒂文·约翰逊 Mark Steven Johnson
◎主  演 崔维斯·费米尔 Travis Fimmel
       莉莉·拉贝 Lily Rabe
       威廉·菲德内尔 William Fichtner


◎简  介

  该片由马克·史蒂文·约翰逊执导,改编自美国历史上一次的真实银行抢劫案件。
  1. General
  2. Unique ID : 79278570433800422117036889523442808879 (0x3BA47F4D647F61D30F3CFF160131F82F)
  3. Complete name : G:Finding.Steve.McQueen.2019.BDRip.1080p.mkv
  4. Format : Matroska
  5. Format version : Version 4 / Version 2
  6. File size : 10.7 GiB
  7. Duration : 1 h 31 min
  8. Overall bit rate : 16.7 Mb/s
  9. Encoded date : UTC 2019-08-12 23:59:25
  10. Writing application : mkvmerge v20.0.0 ('I Am The Sun') 64-bit
  11. Writing library : libebml v1.3.5 + libmatroska v1.4.8

  12. Video
  13. ID : 1
  14. Format : AVC
  15. Format/Info : Advanced Video Codec
  16. Format profile : High@L4.1
  17. Format settings : CABAC / 4 Ref Frames
  18. Format settings, CABAC : Yes
  19. Format settings, RefFrames : 4 frames
  20. Codec ID : V_MPEG4/ISO/AVC
  21. Duration : 1 h 31 min
  22. Bit rate : 15.0 Mb/s
  23. Width : 1 920 pixels
  24. Height : 1 040 pixels
  25. Display aspect ratio : 1.85:1
  26. Frame rate mode : Constant
  27. Frame rate : 23.976 (24000/1001) FPS
  28. Color space : YUV
  29. Chroma subsampling : 4:2:0
  30. Bit depth : 8 bits
  31. Scan type : Progressive
  32. Bits/(Pixel*Frame) : 0.313
  33. Stream size : 9.59 GiB (90%)
  34. Writing library : x264 core 155 r2867+74 66b5600 t_mod_Custom_2 [8-bit@all X86_64]
  35. Encoding settings : cabac=1 / ref=4 / deblock=1:-3:-3 / analyse=0x3:0x133 / me=umh / subme=11 / psy=1 / fade_compensate=0.00 / psy_rd=1.00:0.00 / mixed_ref=1 / me_range=32 / chroma_me=1 / trellis=2 / 8x8dct=1 / cqm=0 / deadzone=21,11 / fast_pskip=0 / chroma_qp_offset=-2 / threads=18 / lookahead_threads=3 / sliced_threads=0 / nr=0 / decimate=0 / interlaced=0 / bluray_compat=0 / constrained_intra=0 / fgo=0 / bframes=9 / b_pyramid=2 / b_adapt=2 / b_bias=0 / direct=3 / weightb=1 / open_gop=0 / weightp=2 / keyint=250 / keyint_min=23 / scenecut=40 / intra_refresh=0 / rc=2pass / mbtree=0 / bitrate=15000 / ratetol=1.0 / qcomp=0.60 / qpmin=0:0:0 / qpmax=69:69:69 / qpstep=4 / cplxblur=20.0 / qblur=0.5 / ip_ratio=1.30 / pb_ratio=1.20 / aq=3:0.80 / aq-sensitivity=10.00 / aq-factor=1.00:1.00:1.00 / aq2=0 / aq3=0
  36. Language : English
  37. Default : Yes
  38. Forced : No

  39. Audio #1
  40. ID : 2
  41. Format : AC-3
  42. Format/Info : Audio Coding 3
  43. Codec ID : A_AC3
  44. Duration : 1 h 31 min
  45. Bit rate mode : Constant
  46. Bit rate : 192 kb/s
  47. Channel(s) : 2 channels
  48. Channel positions : Front: L R
  49. Sampling rate : 48.0 kHz
  50. Frame rate : 31.250 FPS (1536 SPF)
  51. Bit depth : 16 bits
  52. Compression mode : Lossy
  53. Stream size : 126 MiB (1%)
  54. Title : MVO HDRezka
  55. Language : Russian
  56. Service kind : Complete Main
  57. Default : Yes
  58. Forced : No

  59. Audio #2
  60. ID : 3
  61. Format : DTS
  62. Format/Info : Digital Theater Systems
  63. Codec ID : A_DTS
  64. Duration : 1 h 31 min
  65. Bit rate mode : Constant
  66. Bit rate : 1 509 kb/s
  67. Channel(s) : 6 channels
  68. Channel positions : Front: L C R, Side: L R, LFE
  69. Sampling rate : 48.0 kHz
  70. Frame rate : 93.750 FPS (512 SPF)
  71. Bit depth : 16 bits
  72. Compression mode : Lossy
  73. Stream size : 989 MiB (9%)
  74. Language : English
  75. Default : No
  76. Forced : No

  77. Text #1
  78. ID : 4
  79. Format : UTF-8
  80. Codec ID : S_TEXT/UTF8
  81. Codec ID/Info : UTF-8 Plain Text
  82. Duration : 45 s 493 ms
  83. Bit rate : 133 b/s
  84. Count of elements : 7
  85. Stream size : 761 Bytes (0%)
  86. Title : forced
  87. Language : Russian
  88. Default : Yes
  89. Forced : Yes

  90. Text #2
  91. ID : 5
  92. Format : UTF-8
  93. Codec ID : S_TEXT/UTF8
  94. Codec ID/Info : UTF-8 Plain Text
  95. Duration : 1 h 29 min
  96. Bit rate : 63 b/s
  97. Count of elements : 1152
  98. Stream size : 41.7 KiB (0%)
  99. Language : English
  100. Default : No
  101. Forced : No

  102. Menu
  103. 00:00:00.000 : :Chapter 01
  104. 00:05:08.266 : :Chapter 02
  105. 00:11:28.271 : :Chapter 03
  106. 00:16:36.746 : :Chapter 04
  107. 00:21:04.054 : :Chapter 05
  108. 00:30:22.612 : :Chapter 06
  109. 00:36:51.960 : :Chapter 07
  110. 00:43:00.161 : :Chapter 08
  111. 00:47:52.787 : :Chapter 09
  112. 00:55:21.735 : :Chapter 10
  113. 01:01:15.755 : :Chapter 11
  114. 01:07:14.447 : :Chapter 12
  115. 01:11:45.384 : :Chapter 13
  116. 01:15:02.873 : :Chapter 14
  117. 01:22:23.856 : :Chapter 15
  118. 01:28:33.808 : :Chapter 16
复制代码



游客,如果您要查看本帖隐藏内容请回复,您还可以免扣高清币免回复下载:https://www.85lou.com/plugin.php?id=wyfaka_url:url


回复

使用道具 举报

影坛巨星

高清币
520
金钱
9213
鲜花
0
在线时间
960 小时
最后登录
2019-8-23
发表于 2019-8-14 01:30:56 | 显示全部楼层

我看不错噢 谢谢楼主!中国高清论坛越来越好!
回复 支持 1 反对 0

使用道具 举报

金鸡奖主角

高清币
185
金钱
6130
鲜花
0
在线时间
771 小时
最后登录
2019-8-23
发表于 2019-8-14 01:32:29 | 显示全部楼层
楼主发贴辛苦了,谢谢楼主分享!我觉得中国高清论坛是注册对了!
回复 支持 1 反对 0

使用道具 举报

人气偶像

高清币
184
金钱
1354
鲜花
0
在线时间
148 小时
最后登录
2019-8-22
发表于 2019-8-14 02:03:48 | 显示全部楼层
thank you very much
回复 支持 1 反对 0

使用道具 举报

天王巨星

高清币
185
金钱
2493
鲜花
0
在线时间
319 小时
最后登录
2019-8-18
发表于 2019-8-14 02:42:58 | 显示全部楼层

这个帖子不回对不起自己!我想我是一天也不能离开中国高清论坛
回复 支持 1 反对 0

使用道具 举报

天王巨星

高清币
3
金钱
3804
鲜花
0
在线时间
1178 小时
最后登录
2019-8-23
发表于 2019-8-14 02:52:24 | 显示全部楼层


楼主太厉害了
回复 支持 1 反对 0

使用道具 举报

金鸡奖主角

高清币
4
金钱
4622
鲜花
0
在线时间
762 小时
最后登录
2019-8-19
发表于 2019-8-14 03:12:38 | 显示全部楼层

这个帖子不回对不起自己!我想我是一天也不能离开中国高清论坛
加油哦,尽快这周内完成!
回复 支持 1 反对 0

使用道具 举报

天王巨星

高清币
733
金钱
1989
鲜花
0
在线时间
896 小时
最后登录
2019-8-23
发表于 2019-8-13 22:39:31 | 显示全部楼层
楼主发贴辛苦了,谢谢楼主分享!我觉得中国高清论坛是注册对了!
回复 支持 反对

使用道具 举报

永恒神话

高清币
9758
金钱
16919
鲜花
0
在线时间
1811 小时
最后登录
2019-8-23
发表于 2019-8-13 22:40:22 | 显示全部楼层
感谢楼主分享
回复 支持 反对

使用道具 举报

金鸡奖主角

高清币
1341
金钱
4342
鲜花
0
在线时间
317 小时
最后登录
2019-8-16
发表于 2019-8-13 22:40:54 | 显示全部楼层

楼主太厉害了!楼主,电影应该很好看我觉得中国高清论坛真是个好地方!
回复 支持 反对

使用道具 举报

知名艺人

高清币
55
金钱
222
鲜花
0
在线时间
31 小时
最后登录
2019-8-22
发表于 2019-8-13 22:41:37 | 显示全部楼层
谢谢楼主分享好片
回复 支持 反对

使用道具 举报

superstar

高清币
885
金钱
11029
鲜花
0
在线时间
1053 小时
最后登录
2019-8-23
发表于 2019-8-13 22:49:22 | 显示全部楼层

这个帖子不回对不起自己!我想我是一天也不能离开中国高清论坛
回复 支持 反对

使用道具 举报

永恒神话

高清币
9495
金钱
18358
鲜花
0
在线时间
855 小时
最后登录
2019-8-23
发表于 2019-8-13 22:50:41 | 显示全部楼层
楼主发贴辛苦了,谢谢楼主分享!我觉得中国高清论坛是注册对了!
回复 支持 反对

使用道具 举报

天王巨星

高清币
61
金钱
3397
鲜花
0
在线时间
1030 小时
最后登录
2019-8-18
发表于 2019-8-13 22:50:42 | 显示全部楼层

既然你诚信诚意的推荐了,那我就勉为其难的看看吧!中国高清论坛不走平凡路。
回复 支持 反对

使用道具 举报

永恒神话

高清币
10710
金钱
16417
鲜花
0
在线时间
1081 小时
最后登录
2019-8-23
发表于 2019-8-13 22:53:43 | 显示全部楼层
楼主发贴辛苦了,谢谢楼主分享!我觉得中国高清论坛是注册对了!
回复 支持 反对

使用道具 举报

永恒神话

高清币
18437
金钱
31966
鲜花
0
在线时间
2462 小时
最后登录
2019-8-23
发表于 2019-8-13 23:07:36 | 显示全部楼层
谢谢发片,辛苦了
回复 支持 反对

使用道具 举报

懒得打字嘛,点击右侧快捷回复 【右侧内容,后台自定义】
您需要登录后才可以回帖 登录 | 立即注册

本版积分规则

QQ|手机版|小黑屋|中国高清论坛 ( 黔ICP备16007815号-1 )

GMT+8, 2019-8-24 01:28 , Processed in 0.085523 second(s), 26 queries .

Powered by Discuz! X3.4

© 2001-2017 Comsenz Inc.

快速回复 返回顶部 返回列表