请选择 进入手机版 | 继续访问电脑版

中国高清论坛

 找回密码
 立即注册
搜索
查看: 731|回复: 180

[REMUX] 寻找斯蒂夫·麦昆.2019.1080p.BluRay.REMUX.AVC.DTS-HD.MA.5.1-FGT 20.47GB

  [复制链接]

龙行天下

高清币
38001
金钱
9640
鲜花
50
在线时间
2326 小时
最后登录
2019-8-23
发表于 2019-8-14 00:19:10 | 显示全部楼层 |阅读模式


◎译  名 寻找斯蒂夫·麦昆 / 寻找史蒂夫·麦奎因
◎片  名 Finding Steve McQueen
◎年  代 2019
◎产  地 美国
◎类  别 惊悚
◎语  言 英语
◎上映日期 2019-03-15(美国)
◎IMDb评分 6.3/10 from 1478 users
◎IMDb链接 http://www.imdb.com/title/tt6032328
◎豆瓣评分 6.5/10 from 154 users
◎豆瓣链接 https://movie.douban.com/subject/26884358/
◎片  长 90分钟
◎导  演 马克·斯蒂文·约翰逊 Mark Steven Johnson
◎编  剧 Ken Hixon / Keith Sharon
◎主  演 崔维斯·费米尔 Travis Fimmel
      莉莉·拉贝 Lily Rabe
      威廉·菲德内尔 William Fichtner
      瑞切尔·泰勒 Rachael Taylor
      福里斯特·惠特克 Forest Whitaker
      杰克·威利 Jake Weary
      瑞斯·考罗 Rhys Coiro
      路易斯·隆巴迪 Louis Lombardi
      约翰·芬 John Finn
      里克·赖茨 Ric Reitz


◎标  签 犯罪 | 美国 | 真实事件改编 | 剧情 | 2019 | 真人真事改编 | TravisFimmel | 莉莉·拉贝

◎简  介

  该片由马克·史蒂文·约翰逊执导,改编自美国历史上一次的真实银行抢劫案件。






Video
ID : 1
Format : AVC
Format/Info : Advanced Video Codec
Format profile : High@L4.1
Format settings : CABAC / 4 Ref Frames
Format settings, CABAC : Yes
Format settings, Reference frames : 4 frames
Codec ID : V_MPEG4/ISO/AVC
Duration : 1 h 31 min
Bit rate mode : Variable
Bit rate : 30.0 Mb/s
Maximum bit rate : 35.0 Mb/s
Width : 1 920 pixels
Height : 1 080 pixels
Display aspect ratio : 16:9
Frame rate mode : Constant
Frame rate : 23.976 (24000/1001) FPS
Standard : NTSC
Color space : YUV
Chroma subsampling : 4:2:0
Bit depth : 8 bits
Scan type : Progressive
Bits/(Pixel*Frame) : 0.603
Stream size : 19.2 GiB (94%)
Title : Finding.Steve.McQueen.2019.1080p.BluRay.REMUX.AVC.DTS-HD.MA.5.1-FGT
Language : English
Default : No
Forced : No
Color range : Limited
Color primaries : BT.709
Transfer characteristics : BT.709
Matrix coefficients : BT.709

Audio
ID : 2
Format : DTS XLL
Format/Info : Digital Theater Systems
Commercial name : DTS-HD Master Audio
Codec ID : A_DTS
Duration : 1 h 31 min
Bit rate mode : Variable
Bit rate : 1 988 kb/s
Channel(s) : 6 channels
Channel layout : C L R Ls Rs LFE
Sampling rate : 48.0 kHz
Frame rate : 93.750 FPS (512 SPF)
Bit depth : 16 bits
Compression mode : Lossless
Stream size : 1.27 GiB (6%)
Title : Finding.Steve.McQueen.2019.1080p.BluRay.REMUX.AVC.DTS-HD.MA.5.1-FGT
Language : English
Default : Yes
Forced : No

Text #1
ID : 3
Format : UTF-8
Codec ID : S_TEXT/UTF8
Codec ID/Info : UTF-8 Plain Text
Duration : 1 h 29 min
Bit rate : 63 b/s
Count of elements : 1152
Stream size : 41.7 KiB (0%)
Title : English-SRT
Language : English
Default : Yes
Forced : No

Text #2
ID : 4
Format : PGS
Muxing mode : zlib
Codec ID : S_HDMV/PGS
Codec ID/Info : Picture based subtitle format used on BDs/HD-DVDs
Duration : 1 h 29 min
Bit rate : 48.7 kb/s
Count of elements : 2582
Stream size : 31.3 MiB (0%)
Title : English-PGS
Language : English
Default : No
Forced : No

Menu
00:00:00.000 : en:Chapter 01
00:05:07.890 : en:Chapter 02
00:11:28.229 : en:Chapter 03
00:16:36.662 : en:Chapter 04
00:21:04.012 : en:Chapter 05
00:30:22.570 : en:Chapter 06
00:36:51.876 : en:Chapter 07
00:43:00.077 : en:Chapter 08
00:47:52.744 : en:Chapter 09
00:55:21.693 : en:Chapter 10
01:01:15.713 : en:Chapter 11
01:07:14.405 : en:Chapter 12
01:11:45.342 : en:Chapter 13
01:15:02.581 : en:Chapter 14
01:22:23.813 : en:Chapter 15
01:28:33.975 : en:Chapter 16



游客,如果您要查看本帖隐藏内容请回复,您还可以免扣高清币免回复下载:https://www.85lou.com/plugin.php?id=wyfaka_url:url

#专属夏天的歌词#后来才知道, 好朋友不是通过努力争取来的, 而是在各自的道路上奔跑时遇见的。” ——刘同《向着光亮那方》
回复

使用道具 举报

永恒神话

高清币
6863
金钱
25543
鲜花
0
在线时间
5159 小时
最后登录
2019-8-23
发表于 2019-8-14 03:29:36 | 显示全部楼层

感谢楼主的无私分享!要想中国高清论坛好 就靠你我他
回复 支持 1 反对 0

使用道具 举报

永恒神话

高清币
8240
金钱
14520
鲜花
0
在线时间
2649 小时
最后登录
2019-8-24
发表于 2019-8-14 03:29:38 | 显示全部楼层

楼主太厉害了!楼主,电影应该很好看我觉得中国高清论坛真是个好地方!
回复 支持 1 反对 0

使用道具 举报

永恒神话

高清币
8240
金钱
14520
鲜花
0
在线时间
2649 小时
最后登录
2019-8-24
发表于 2019-8-14 03:30:44 | 显示全部楼层

这个帖子不回对不起自己!我想我是一天也不能离开中国高清论坛
回复 支持 1 反对 0

使用道具 举报

天王巨星

高清币
767
金钱
1343
鲜花
0
在线时间
73 小时
最后登录
2019-8-14
发表于 2019-8-14 00:23:08 | 显示全部楼层
楼主发贴辛苦了,谢谢楼主分享!我觉得中国高清论坛是注册对了!
回复 支持 反对

使用道具 举报

superstar

高清币
3206
金钱
12741
鲜花
0
在线时间
447 小时
最后登录
2019-8-23
发表于 2019-8-14 00:39:28 | 显示全部楼层
楼主发贴辛苦了,谢谢楼主分享!我觉得中国高清论坛是注册对了!
回复 支持 反对

使用道具 举报

天王巨星

高清币
68
金钱
2492
鲜花
0
在线时间
383 小时
最后登录
2019-8-22
发表于 2019-8-14 00:41:37 | 显示全部楼层

我看不错噢 谢谢楼主!中国高清论坛越来越好!
回复 支持 反对

使用道具 举报

superstar

高清币
3484
金钱
8444
鲜花
0
在线时间
920 小时
最后登录
2019-8-23
发表于 2019-8-14 00:51:03 | 显示全部楼层

楼主太厉害了!楼主,电影应该很好看我觉得中国高清论坛真是个好地方!
回复 支持 反对

使用道具 举报

永恒神话

高清币
27970
金钱
38776
鲜花
0
在线时间
946 小时
最后登录
2019-8-24
发表于 2019-8-14 01:02:58 | 显示全部楼层
楼主发帖辛苦了,感谢楼主无私的分享!永远支持高清论坛!
回复 支持 反对

使用道具 举报

知名艺人

高清币
42
金钱
259
鲜花
0
在线时间
23 小时
最后登录
2019-8-22
发表于 2019-8-14 01:06:10 | 显示全部楼层

这个帖子不回对不起自己!我想我是一天也不能离开中国高清论坛
回复 支持 反对

使用道具 举报

知名艺人

高清币
42
金钱
259
鲜花
0
在线时间
23 小时
最后登录
2019-8-22
发表于 2019-8-14 01:06:32 | 显示全部楼层

我看不错噢 谢谢楼主!中国高清论坛越来越好!
回复 支持 反对

使用道具 举报

好莱坞明星

高清币
14
金钱
7004
鲜花
0
在线时间
2511 小时
最后登录
2019-8-19
发表于 2019-8-14 01:20:29 | 显示全部楼层
楼主发贴辛苦了,谢谢楼主分享!我觉得中国高清论坛是注册对了!
回复 支持 反对

使用道具 举报

懒得打字嘛,点击右侧快捷回复 【右侧内容,后台自定义】
您需要登录后才可以回帖 登录 | 立即注册

本版积分规则

QQ|手机版|小黑屋|中国高清论坛 ( 黔ICP备16007815号-1 )

GMT+8, 2019-8-24 02:06 , Processed in 0.074538 second(s), 25 queries .

Powered by Discuz! X3.4

© 2001-2017 Comsenz Inc.

快速回复 返回顶部 返回列表