请选择 进入手机版 | 继续访问电脑版

中国高清论坛

 找回密码
 立即注册
搜索
查看: 986|回复: 343

[科幻片] 哥斯拉2:怪兽之王.2019.INTERNAL.HDR.2160p.WEB.H265-DEFLATE.23.35GB.23.29GB

  [复制链接]

龙行天下

高清币
38001
金钱
9640
鲜花
50
在线时间
2326 小时
最后登录
2019-8-23
发表于 2019-8-14 00:30:38 | 显示全部楼层 |阅读模式


◎译  名 哥斯拉2:怪兽之王/哥斯拉:怪兽之王/哥斯拉2/哥斯拉2018/哥斯拉II:王者巨兽(港)/哥吉拉II怪兽之王(台)
◎片  名 Godzilla: King of the Monsters/Godzilla 2
◎年  代 2019
◎国  家 美国
◎类  别 动作/冒险/奇幻
◎语  言 英语
◎IMDb评分 6.4/10 from 58649 user
◎IMDb链接 https://www.imdb.com/title/tt3741700/
◎片  长 2 h 11 min
◎导  演 迈克尔·道赫蒂 Michael Dougherty
◎主  演 凯尔·钱德勒 Kyle Chandler
       维拉·法米加 Vera Farmiga
       米莉·波比·布朗 Millie Bobby Brown
       章子怡 Ziyi Zhang
       渡边谦 Ken Watanabe


◎简  介


  随着《哥斯拉》和《金刚:骷髅岛》在全球范围内取得成功,传奇影业和华纳兄弟影业联手开启了怪兽宇宙系列电影的新篇章—一部史诗级动作冒险巨制。在这部电影中,哥斯拉将和众多大家在流行文化中所熟知的怪兽展开较量。全新故事中,研究神秘动物学的机构“帝王组织”成员将勇敢直面巨型怪兽,其中强大的哥斯拉也将和魔斯拉、拉顿和它的死对头——三头王基多拉展开激烈对抗。当这些只存在于传说里的超级生物再度崛起时,它们将展开王者争霸,人类的命运岌岌可危……

花絮

《.哥斯拉2:怪兽之王》是“怪兽宇宙”系列电影第三部。

.本片中119.8米高的哥斯拉,也超越了第一部中的设定。

.三头王者基多拉,根植于南极洲冻土之下的帝王组织防御工事里,它潜伏在冰雪坟墓之下,是迄今发现最大的超级物种,超过150米的体型让哥斯拉都相形见绌。










Video
ID : 1
Format : HEVC
Format/Info : High Efficiency Video Coding
Format profile : Main 10@L5@High
HDR format : SMPTE ST 2086, HDR10 compatible
Codec ID : V_MPEGH/ISO/HEVC
Duration : 2 h 11 min
Bit rate : 24.2 Mb/s
Width : 3 840 pixels
Height : 1 600 pixels
Original height : 2 160 pixels
Display aspect ratio : 16:9
Frame rate mode : Constant
Frame rate : 23.976 (24000/1001) FPS
Color space : YUV
Chroma subsampling : 4:2:0 (Type 2)
Bit depth : 10 bits
Bits/(Pixel*Frame) : 0.164
Stream size : 22.3 GiB (95%)
Language : English
Default : Yes
Forced : No
Color range : Limited
Color primaries : BT.2020
Transfer characteristics : PQ
Matrix coefficients : BT.2020 non-constant
Mastering display color primaries : Display P3
Mastering display luminance : min: 0.0050 cd/m2, max: 4000 cd/m2
Maximum Content Light Level : 1998 cd/m2
Maximum Frame-Average Light Level : 414 cd/m2

Audio
ID : 2
Format : E-AC-3 JOC
Format/Info : Enhanced AC-3 with Joint Object Coding
Commercial name : Dolby Digital Plus with Dolby Atmos
Codec ID : A_EAC3
Duration : 2 h 11 min
Bit rate mode : Constant
Bit rate : 640 kb/s
Channel(s) : 6 channels
Channel layout : L R C LFE Ls Rs
Sampling rate : 48.0 kHz
Frame rate : 31.250 FPS (1536 SPF)
Compression mode : Lossy
Delay relative to video : 1 s 44 ms
Stream size : 603 MiB (3%)
Language : English
Service kind : Complete Main
Default : Yes
Forced : No
Complexity index : 16
Number of dynamic objects : 15
Bed channel count : 1 channel
Bed channel configuration : LFE

Text #1
ID : 3
Format : UTF-8
Codec ID : S_TEXT/UTF8
Codec ID/Info : UTF-8 Plain Text
Title : English
Language : English
Default : No
Forced : No

Text #2
ID : 4
Format : UTF-8
Codec ID : S_TEXT/UTF8
Codec ID/Info : UTF-8 Plain Text
Title : English (SDH)
Language : English
Default : No
Forced : No

Text #3
ID : 5
Format : UTF-8
Codec ID : S_TEXT/UTF8
Codec ID/Info : UTF-8 Plain Text
Title : Spanish
Language : Spanish
Default : No
Forced : No

Menu
00:00:00.000 : en:1
00:10:52.000 : en:2
00:18:04.000 : en:3
00:30:24.000 : en:4
00:45:14.000 : en:5
00:54:06.000 : en:6
01:05:36.000 : en:7
01:09:26.000 : en:8
01:19:25.000 : en:9
01:29:59.000 : en:10
01:38:29.000 : en:11
01:49:51.000 : en:12
01:59:20.000 : en:13



游客,如果您要查看本帖隐藏内容请回复,您还可以免扣高清币免回复下载:https://www.85lou.com/plugin.php?id=wyfaka_url:url

#专属夏天的歌词#后来才知道, 好朋友不是通过努力争取来的, 而是在各自的道路上奔跑时遇见的。” ——刘同《向着光亮那方》
回复

使用道具 举报

人气偶像

高清币
71
金钱
1368
鲜花
0
在线时间
155 小时
最后登录
2019-8-23

巨蟹座

发表于 2019-8-14 02:36:26 | 显示全部楼层

其实我一直觉得楼主的品味不错!呵呵!中国高清论坛太棒了!
回复 支持 3 反对 0

使用道具 举报

超级明星

高清币
127
金钱
8195
鲜花
0
在线时间
2622 小时
最后登录
2019-8-23
发表于 2019-8-14 02:30:57 | 显示全部楼层

既然你诚信诚意的推荐了,那我就勉为其难的看看吧!中国高清论坛不走平凡路。
回复 支持 2 反对 0

使用道具 举报

金鸡奖主角

高清币
1236
金钱
2706
鲜花
0
在线时间
276 小时
最后登录
2019-8-23
发表于 2019-8-14 02:05:54 | 显示全部楼层
楼主发贴辛苦了,谢谢楼主分享!我觉得中国高清论坛是注册对了!
回复 支持 2 反对 0

使用道具 举报

人气偶像

高清币
184
金钱
1354
鲜花
0
在线时间
148 小时
最后登录
2019-8-22
发表于 2019-8-14 02:04:28 | 显示全部楼层
thank you very much
回复 支持 2 反对 0

使用道具 举报

人气偶像

高清币
3
金钱
2149
鲜花
0
在线时间
491 小时
最后登录
2019-8-23
发表于 2019-8-14 01:57:59 | 显示全部楼层
楼主发贴辛苦了,谢谢楼主分享!我觉得中国高清论坛是注册对了!
回复 支持 2 反对 0

使用道具 举报

人气偶像

高清币
120
金钱
1241
鲜花
0
在线时间
173 小时
最后登录
2019-8-14
发表于 2019-8-14 00:48:12 | 显示全部楼层
楼主太厉害了!楼主,电影应该很好看我觉得中国高清论坛真是个好地方!
回复 支持 2 反对 0

使用道具 举报

跑龙套

高清币
0
金钱
4
鲜花
0
在线时间
0 小时
最后登录
2019-8-14
发表于 2019-8-14 00:52:43 | 显示全部楼层
楼主太棒了
回复 支持 2 反对 0

使用道具 举报

跑龙套

高清币
0
金钱
4
鲜花
0
在线时间
0 小时
最后登录
2019-8-14
发表于 2019-8-14 00:54:01 | 显示全部楼层
赞一个 下载资源看看
回复 支持 2 反对 0

使用道具 举报

superstar

高清币
3671
金钱
12217
鲜花
0
在线时间
3730 小时
最后登录
2019-8-24
发表于 2019-8-14 00:55:03 | 显示全部楼层

这东西我收了!谢谢楼主!中国高清论坛真好!
回复 支持 2 反对 0

使用道具 举报

人气偶像

高清币
4
金钱
1606
鲜花
0
在线时间
493 小时
最后登录
2019-8-23
发表于 2019-8-14 00:55:30 | 显示全部楼层
哇唔,高清都出来了
回复 支持 反对

使用道具 举报

永恒神话

高清币
16597
金钱
27625
鲜花
0
在线时间
2683 小时
最后登录
2019-8-23
发表于 2019-8-14 00:57:14 | 显示全部楼层

其实我一直觉得楼主的品味不错!呵呵!中国高清论坛太棒了!
回复 支持 反对

使用道具 举报

跑龙套

高清币
0
金钱
4
鲜花
0
在线时间
0 小时
最后登录
2019-8-14
发表于 2019-8-14 00:59:36 | 显示全部楼层

感谢楼主的无私分享!要想中国高清论坛好 就靠你我他
回复 支持 反对

使用道具 举报

永恒神话

高清币
27970
金钱
38776
鲜花
0
在线时间
946 小时
最后登录
2019-8-24
发表于 2019-8-14 01:02:19 | 显示全部楼层
楼主发帖辛苦了,感谢楼主无私的分享!永远支持高清论坛!
回复 支持 反对

使用道具 举报

懒得打字嘛,点击右侧快捷回复 【右侧内容,后台自定义】
您需要登录后才可以回帖 登录 | 立即注册

本版积分规则

QQ|手机版|小黑屋|中国高清论坛 ( 黔ICP备16007815号-1 )

GMT+8, 2019-8-24 01:31 , Processed in 0.092221 second(s), 26 queries .

Powered by Discuz! X3.4

© 2001-2017 Comsenz Inc.

快速回复 返回顶部 返回列表