请选择 进入手机版 | 继续访问电脑版

中国高清论坛

 找回密码
 立即注册
搜索
查看: 3162|回复: 615

[科幻片] 人工性智能/爱上太空女神(台) A.I.Rising.2018.1080p.BluRay.x264.DTS-CHD 7.72 GiB

  [复制链接]

超级版主

高清币
17054
金钱
39553
鲜花
0
在线时间
12126 小时
最后登录
2019-9-18
发表于 2019-9-6 07:18:28 | 显示全部楼层 |阅读模式



◎译  名 人工性智能/太空两性指南/智能崛起/爱上太空女神(台)
◎片  名 Ederlezi Rising/A.I. Rising
◎年  代 2018
◎国  家 塞尔维亚
◎类  别 剧情/科幻/爱情
◎语  言 英语
◎IMDb评分 6.1/10 from 7429 users
◎IMDb链接 https://www.imdb.com/title/tt5215088/
◎片  长 1 h 26 min
◎导  演 拉扎尔·博德罗扎 Lazar Bodro?a
◎主  演 塞巴斯蒂安·卡瓦扎 Sebastian Cavazza
       斯托雅 Stoya
       玛鲁萨·马杰尔 Marusa Majer
       科斯蒂·贝斯特曼 Kirsty Besterman



◎简  介

  埃德尔兹·瑞辛是一部激动人心的科幻爱情小说,讲述了跨国公司埃德尔兹公司在不久的将来对半人马座阿尔法进行的开创性太空任务。埃德雷兹招募了一名在新改革的未来苏联受训的斯拉夫宇航员米卢,并与尼曼尼(Nimani)一同前往,尼曼尼是一名女性机器人,旨在满足他的任何愿望。



  1. Video
  2. ID : 1
  3. Format : AVC
  4. Format/Info : Advanced Video Codec
  5. Format profile : [email]High@L4.1[/email]
  6. Format settings : CABAC / 4 Ref Frames
  7. Format settings, CABAC : Yes
  8. Format settings, Reference frames : 4 frames
  9. Codec ID : V_MPEG4/ISO/AVC
  10. Duration : 1 h 26 min
  11. Bit rate : 11.3 Mb/s
  12. Width : 1 920 pixels
  13. Height : 720 pixels
  14. Display aspect ratio : 2.667
  15. Frame rate mode : Constant
  16. Frame rate : 23.976 (24000/1001) FPS
  17. Color space : YUV
  18. Chroma subsampling : 4:2:0
  19. Bit depth : 8 bits
  20. Scan type : Progressive
  21. Bits/(Pixel*Frame) : 0.340
  22. Stream size : 6.81 GiB (88%)
  23. Writing library : x264 core 157 r2969 d4099dd
  24. Encoding settings : cabac=1 / ref=4 / deblock=1:-3:-3 / analyse=0x3:0x133 / me=umh / subme=11 / psy=1 / psy_rd=1.00:0.00 / mixed_ref=1 / me_range=24 / chroma_me=1 / trellis=2 / 8x8dct=1 / cqm=0 / deadzone=21,11 / fast_pskip=0 / chroma_qp_offset=-2 / threads=9 / lookahead_threads=2 / sliced_threads=0 / nr=0 / decimate=1 / interlaced=0 / bluray_compat=0 / constrained_intra=0 / bframes=12 / b_pyramid=2 / b_adapt=2 / b_bias=0 / direct=3 / weightb=1 / open_gop=0 / weightp=2 / keyint=300 / keyint_min=24 / scenecut=40 / intra_refresh=0 / rc=crf / mbtree=0 / crf=18.0 / qcomp=0.60 / qpmin=0 / qpmax=69 / qpstep=4 / ip_ratio=1.40 / pb_ratio=1.30 / aq=3:0.80
  25. Language : English
  26. Default : Yes
  27. Forced : No

  28. Audio
  29. ID : 2
  30. Format : DTS
  31. Format/Info : Digital Theater Systems
  32. Codec ID : A_DTS
  33. Duration : 1 h 26 min
  34. Bit rate mode : Constant
  35. Bit rate : 1 509 kb/s
  36. Channel(s) : 6 channels
  37. Channel layout : C L R Ls Rs LFE
  38. Sampling rate : 48.0 kHz
  39. Frame rate : 93.750 FPS (512 SPF)
  40. Bit depth : 24 bits
  41. Compression mode : Lossy
  42. Stream size : 932 MiB (12%)
  43. Language : English
  44. Default : Yes
  45. Forced : No

  46. Text
  47. ID : 3
  48. Format : UTF-8
  49. Codec ID : S_TEXT/UTF8
  50. Codec ID/Info : UTF-8 Plain Text
  51. Duration : 1 h 18 min
  52. Bit rate : 42 b/s
  53. Count of elements : 697
  54. Stream size : 24.6 KiB (0%)
  55. Language : English
  56. Default : Yes
  57. Forced : No
复制代码









游客,如果您要查看本帖隐藏内容请回复,您还可以免扣高清币免回复下载:https://www.85lou.com/plugin.php?id=wyfaka_url:url

回复

使用道具 举报

人气偶像

高清币
7
金钱
1540
鲜花
0
在线时间
223 小时
最后登录
2019-9-7
发表于 2019-9-6 07:23:12 | 显示全部楼层
埃德尔兹·瑞辛是一部激动人心的科幻爱情小说,讲述了跨国公司埃德尔兹公司在不久的将来对半人马座阿尔法进行的开创性太空任务。埃德雷兹招募了一名在新改革的未来苏联受训的斯拉夫宇航员米卢,并与尼曼尼(Nimani)一同前往,尼曼尼是一名女性机器人,旨在满足他的任何愿望。
回复 支持 反对

使用道具 举报

好莱坞明星

高清币
308
金钱
7330
鲜花
0
在线时间
1104 小时
最后登录
2019-9-17
发表于 2019-9-6 07:26:29 | 显示全部楼层
楼主发贴辛苦了,谢谢楼主分享!我觉得中国高清论坛是注册对了!
回复 支持 反对

使用道具 举报

永恒神话

高清币
12892
金钱
37455
鲜花
10
在线时间
2485 小时
最后登录
2019-9-18
发表于 2019-9-6 07:37:47 | 显示全部楼层

楼主,我太崇拜你了!我想我是一天也不能离开中国高清论坛
回复 支持 反对

使用道具 举报

天王巨星

高清币
177
金钱
2590
鲜花
0
在线时间
1210 小时
最后登录
2019-9-18
发表于 2019-9-6 07:38:13 | 显示全部楼层

楼主太厉害了!楼主,电影应该很好看我觉得中国高清论坛真是个好地方!
回复 支持 反对

使用道具 举报

永恒神话

高清币
6704
金钱
13839
鲜花
0
在线时间
935 小时
最后登录
2019-9-18
发表于 2019-9-6 07:41:10 | 显示全部楼层
楼主发贴辛苦了,谢谢楼主分享!我觉得中国高清论坛是注册对了!
回复 支持 反对

使用道具 举报

金鸡奖主角

高清币
170
金钱
5189
鲜花
0
在线时间
2301 小时
最后登录
2019-9-18
发表于 2019-9-6 07:41:22 | 显示全部楼层
楼主发贴辛苦了,谢谢楼主分享!我觉得中国高清论坛是注册对了!
回复 支持 反对

使用道具 举报

超级明星

高清币
2666
金钱
5226
鲜花
0
在线时间
1387 小时
最后登录
2019-9-18
发表于 2019-9-6 07:45:38 | 显示全部楼层

楼主太厉害了!楼主,电影应该很好看我觉得中国高清论坛真是个好地方!
回复 支持 反对

使用道具 举报

懒得打字嘛,点击右侧快捷回复 【右侧内容,后台自定义】
您需要登录后才可以回帖 登录 | 立即注册

本版积分规则

QQ|手机版|小黑屋|中国高清论坛 ( 黔ICP备16007815号-1 )

GMT+8, 2019-9-18 23:23 , Processed in 0.066233 second(s), 26 queries .

Powered by Discuz! X3.4

© 2001-2017 Comsenz Inc.

快速回复 返回顶部 返回列表