请选择 进入手机版 | 继续访问电脑版

中国高清论坛

 找回密码
 立即注册
搜索
查看: 3111|回复: 624

[传记片] 叛徒 The.Traitor.2019.ITALIAN.1080p.BluRay.x264.DTS-FGT 13.79 GiB

  [复制链接]

超级版主

高清币
17054
金钱
39553
鲜花
0
在线时间
12126 小时
最后登录
2019-9-18
发表于 2019-9-6 11:24:05 | 显示全部楼层 |阅读模式



◎译  名 叛徒
◎片  名 Il traditore/The Traitor/Tommaso Buscetta
◎年  代 2019
◎国  家 意大利/法国/巴西/德国
◎类  别 剧情
◎语  言 意大利语
◎IMDb评分 7.4/10 from 921 users
◎IMDb链接 http://www.imdb.com/title/tt7736478
◎片  长 2 h 31 min
◎导  演 马可·贝洛基奥 Marco Bellocchio
◎主  演 皮耶尔弗兰切斯科·法维诺 Pierfrancesco Favino
      马丽娅·费尔南达·康基多 Maria Fernanda Candido
      路易吉·洛·卡肖 Luigi Lo Cascio
      福斯托·鲁索·阿莱西 Fausto Russo Alesi
      尼诺·波尔齐奥 Nino Porzio
      Alessio Praticò
      Gabriele Arena
      Fabrizio Ferracane
      Jacopo Garfagnoli
      Patrick Simons
      Marco Gambino
      Calì Nicola
      Goffredo Maria Bruno
      Massimiliano Ubaldi
      Marilina Marino
      Nunzia Lo Presti



◎简  介

  影片围绕西西里黑手党大佬多玛索·布西达展开,其兄长及幼子在巴西遭黑手党残杀,自己随后被引渡回意大利,并以信息提供者身份,与意大利检察官展开协作。

获奖记录

戛纳电影节(2019;第72届)
提名
·金棕榈奖马可·贝罗奇奥 Marco Bellocchio  

  1. Video
  2. ID : 1
  3. Format : AVC
  4. Format/Info : Advanced Video Codec
  5. Format profile : High@L4.1
  6. Format settings : CABAC / 4 Ref Frames
  7. Format settings, CABAC : Yes
  8. Format settings, Reference frames : 4 frames
  9. Codec ID : V_MPEG4/ISO/AVC
  10. Duration : 2 h 31 min
  11. Bit rate : 11.5 Mb/s
  12. Width : 1 920 pixels
  13. Height : 1 036 pixels
  14. Display aspect ratio : 1.85:1
  15. Frame rate mode : Constant
  16. Frame rate : 23.976 (24000/1001) FPS
  17. Color space : YUV
  18. Chroma subsampling : 4:2:0
  19. Bit depth : 8 bits
  20. Scan type : Progressive
  21. Bits/(Pixel*Frame) : 0.241
  22. Stream size : 12.2 GiB (88%)
  23. Title : The.Traitor.2019.ITALIAN.1080p.BluRay.x264.DTS-FGT
  24. Writing library : x264 core 148 r2795M aaa9aa8
  25. Encoding settings : cabac=1 / ref=4 / deblock=1:-2:-2 / analyse=0x3:0x113 / me=umh / subme=9 / psy=1 / psy_rd=1.00:0.15 / mixed_ref=1 / me_range=16 / chroma_me=1 / trellis=2 / 8x8dct=1 / cqm=0 / deadzone=21,11 / fast_pskip=1 / chroma_qp_offset=-3 / threads=24 / lookahead_threads=3 / sliced_threads=0 / nr=0 / decimate=1 / interlaced=0 / bluray_compat=0 / constrained_intra=0 / bframes=3 / b_pyramid=2 / b_adapt=1 / b_bias=0 / direct=3 / weightb=1 / open_gop=0 / weightp=2 / keyint=250 / keyint_min=25 / scenecut=40 / intra_refresh=0 / rc_lookahead=50 / rc=2pass / mbtree=1 / bitrate=11500 / ratetol=1.0 / qcomp=0.60 / qpmin=0 / qpmax=69 / qpstep=4 / cplxblur=20.0 / qblur=0.5 / vbv_maxrate=31250 / vbv_bufsize=31250 / nal_hrd=none / filler=0 / ip_ratio=1.40 / aq=1:1.00
  26. Language : Italian
  27. Default : Yes
  28. Forced : No

  29. Audio
  30. ID : 2
  31. Format : DTS
  32. Format/Info : Digital Theater Systems
  33. Codec ID : A_DTS
  34. Duration : 2 h 31 min
  35. Bit rate mode : Constant
  36. Bit rate : 1 509 kb/s
  37. Channel(s) : 6 channels
  38. Channel layout : C L R Ls Rs LFE
  39. Sampling rate : 48.0 kHz
  40. Frame rate : 93.750 FPS (512 SPF)
  41. Bit depth : 16 bits
  42. Compression mode : Lossy
  43. Stream size : 1.60 GiB (12%)
  44. Title : The.Traitor.2019.ITALIAN.1080p.BluRay.x264.DTS-FGT
  45. Language : Italian
  46. Default : Yes
  47. Forced : No

  48. Text
  49. ID : 3
  50. Format : UTF-8
  51. Codec ID : S_TEXT/UTF8
  52. Codec ID/Info : UTF-8 Plain Text
  53. Duration : 2 h 21 min
  54. Bit rate : 47 b/s
  55. Count of elements : 1504
  56. Stream size : 49.6 KiB (0%)
  57. Language : English
  58. Default : Yes
  59. Forced : No

  60. Menu
  61. 00:00:00.000 : en:Chapter 1
  62. 00:11:01.577 : en:Chapter 2
  63. 00:25:06.046 : en:Chapter 3
  64. 00:40:19.972 : en:Chapter 4
  65. 01:11:11.934 : en:Chapter 5
  66. 01:18:45.345 : en:Chapter 6
  67. 01:29:46.589 : en:Chapter 7
  68. 01:36:46.550 : en:Chapter 8
  69. 01:47:30.944 : en:Chapter 9
  70. 01:52:13.393 : en:Chapter 10
  71. 02:06:50.060 : en:Chapter 11
  72. 02:15:47.222 : en:Chapter 12
复制代码






游客,如果您要查看本帖隐藏内容请回复,您还可以免扣高清币免回复下载:https://www.85lou.com/plugin.php?id=wyfaka_url:url
回复

使用道具 举报

超级明星

高清币
2317
金钱
6557
鲜花
0
在线时间
1674 小时
最后登录
2019-9-18
发表于 2019-9-6 12:31:55 | 显示全部楼层

我看不错噢 谢谢楼主!中国高清论坛越来越好!
回复 支持 1 反对 0

使用道具 举报

人气偶像

高清币
55
金钱
2138
鲜花
0
在线时间
1018 小时
最后登录
2019-9-18
发表于 2019-9-6 12:29:17 | 显示全部楼层
感谢发布好片
回复 支持 1 反对 0

使用道具 举报

天王巨星

高清币
43
金钱
2420
鲜花
0
在线时间
440 小时
最后登录
2019-9-18
发表于 2019-9-6 12:33:49 | 显示全部楼层
真实事件可能与电影故事差距很远。
回复 支持 1 反对 0

使用道具 举报

好莱坞明星

高清币
174
金钱
7203
鲜花
0
在线时间
1459 小时
最后登录
2019-9-18
发表于 2019-9-6 11:25:29 | 显示全部楼层
感谢发布好片
回复 支持 反对

使用道具 举报

superstar

高清币
1339
金钱
9997
鲜花
0
在线时间
2596 小时
最后登录
2019-9-18
发表于 2019-9-6 11:26:15 手机频道 | 显示全部楼层
谢谢楼主的精彩分享!
回复 支持 反对

使用道具 举报

永恒神话

高清币
31684
金钱
43071
鲜花
0
在线时间
1056 小时
最后登录
2019-9-18
发表于 2019-9-6 11:32:31 | 显示全部楼层
楼主发帖辛苦了,感谢楼主无私的分享!永远支持高清论坛!
回复 支持 反对

使用道具 举报

人气偶像

高清币
692
金钱
856
鲜花
0
在线时间
39 小时
最后登录
2019-9-18
发表于 2019-9-6 11:40:13 | 显示全部楼层
楼主发贴辛苦了,谢谢楼主分享!我觉得中国高清论坛是注册对了!
回复 支持 反对

使用道具 举报

天王巨星

高清币
680
金钱
1192
鲜花
0
在线时间
247 小时
最后登录
2019-9-18
发表于 2019-9-6 11:48:39 | 显示全部楼层
楼主发贴辛苦了,谢谢楼主分享!我觉得中国高清论坛是注册对了!
回复 支持 反对

使用道具 举报

人气偶像

高清币
128
金钱
431
鲜花
0
在线时间
42 小时
最后登录
2019-9-18
发表于 2019-9-6 11:49:53 | 显示全部楼层

既然你诚信诚意的推荐了,那我就勉为其难的看看吧!中国高清论坛不走平凡路。
回复 支持 反对

使用道具 举报

金鸡奖主角

高清币
178
金钱
4148
鲜花
0
在线时间
835 小时
最后登录
2019-9-18
发表于 2019-9-6 11:51:56 | 显示全部楼层
楼主发贴辛苦了,谢谢楼主分享!我觉得中国高清论坛是注册对了!
回复 支持 反对

使用道具 举报

永恒神话

高清币
39909
金钱
79239
鲜花
0
在线时间
6810 小时
最后登录
2019-9-18
发表于 2019-9-6 11:55:25 | 显示全部楼层
楼主发贴辛苦了,谢谢楼主分享!我觉得中国高清论坛是注册对了!
回复 支持 反对

使用道具 举报

天王巨星

高清币
200
金钱
2493
鲜花
0
在线时间
627 小时
最后登录
2019-9-18
发表于 2019-9-6 11:56:16 | 显示全部楼层
感谢楼主的无私分享!
回复 支持 反对

使用道具 举报

懒得打字嘛,点击右侧快捷回复 【右侧内容,后台自定义】
您需要登录后才可以回帖 登录 | 立即注册

本版积分规则

QQ|手机版|小黑屋|中国高清论坛 ( 黔ICP备16007815号-1 )

GMT+8, 2019-9-18 23:52 , Processed in 0.074574 second(s), 27 queries .

Powered by Discuz! X3.4

© 2001-2017 Comsenz Inc.

快速回复 返回顶部 返回列表