请选择 进入手机版 | 继续访问电脑版

中国高清论坛

 找回密码
 立即注册
搜索
查看: 3697|回复: 627

[动作片] 激战阵线 Рубеж.2018.BDRip.1080p.iTunes 5.73 GiB

  [复制链接]

超级版主

高清币
17054
金钱
39553
鲜花
0
在线时间
12126 小时
最后登录
2019-9-18
发表于 2019-9-6 22:29:08 | 显示全部楼层 |阅读模式


◎译  名 激战阵线
◎片  名 Rubezh/Frontier
◎年  代 2018
◎国  家 俄罗斯
◎类  别 动作/科幻/战争
◎语  言 俄语
◎IMDb评分  4.9/10 from 57 users
◎IMDB链接 http://www.imdb.com/title/tt7776936/
◎片  长 1 h 40 min
◎导  演 迪米特里·图灵
◎主  演 Kristina Brodskaya
       叶莲娜·利亚多娃 Elena Lyadova
       Alexander Korshunov
      
◎简  介



  迈克尔从前认为祖先是苏德战场上投降自杀的叛徒,但是机缘巧合之下发现了时间之门,在当穿越回去之后,发现祖先全是英勇的战士,而非懦夫。他经历了死亡,战争等以前无法想象的场景,也找到了自己一生唯一的挚爱。

  1. ormat : Matroska
  2. Format version : Version 4
  3. File size : 5.73 GiB
  4. Duration : 1 h 40 min
  5. Overall bit rate : 8 192 kb/s
  6. Movie name : Рубеж (2018)
  7. Encoded date : UTC 2019-09-06 09:05:19
  8. Writing application : mkvmerge v9.8.0 ('Kuglblids') 32bit
  9. Writing library : libebml v1.3.4 + libmatroska v1.4.5
  10. Cover : Yes
  11. Attachments : cover.jpg

  12. Video
  13. ID : 1
  14. Format : AVC
  15. Format/Info : Advanced Video Codec
  16. Format profile : High@L4.1
  17. Format settings : CABAC / 5 Ref Frames
  18. Format settings, CABAC : Yes
  19. Format settings, RefFrames : 5 frames
  20. Codec ID : V_MPEG4/ISO/AVC
  21. Duration : 1 h 40 min
  22. Bit rate : 7 035 kb/s
  23. Width : 1 920 pixels
  24. Height : 808 pixels
  25. Display aspect ratio : 2.40:1
  26. Frame rate mode : Constant
  27. Frame rate : 24.000 FPS
  28. Color space : YUV
  29. Chroma subsampling : 4:2:0
  30. Bit depth : 8 bits
  31. Scan type : Progressive
  32. Bits/(Pixel*Frame) : 0.189
  33. Stream size : 4.92 GiB (86%)
  34. Writing library : x264 core 157 r2969 d4099dd
  35. Encoding settings : cabac=1 / ref=5 / deblock=1:-1:-1 / analyse=0x3:0x133 / me=umh / subme=8 / psy=1 / psy_rd=1.00:0.15 / mixed_ref=1 / me_range=16 / chroma_me=1 / trellis=2 / 8x8dct=1 / cqm=0 / deadzone=21,11 / fast_pskip=0 / chroma_qp_offset=-3 / threads=16 / lookahead_threads=2 / sliced_threads=0 / nr=0 / decimate=1 / interlaced=0 / bluray_compat=0 / constrained_intra=0 / bframes=3 / b_pyramid=2 / b_adapt=1 / b_bias=0 / direct=3 / weightb=1 / open_gop=0 / weightp=2 / keyint=250 / keyint_min=24 / scenecut=40 / intra_refresh=0 / rc_lookahead=40 / rc=crf / mbtree=1 / crf=20.0 / qcomp=0.60 / qpmin=10 / qpmax=69 / qpstep=4 / ip_ratio=1.40 / aq=1:1.00
  36. Language : English
  37. Default : Yes
  38. Forced : No

  39. Audio #1
  40. ID : 2
  41. Format : AC-3
  42. Format/Info : Audio Coding 3
  43. Commercial name : Dolby Digital
  44. Codec ID : A_AC3
  45. Duration : 1 h 39 min
  46. Bit rate mode : Constant
  47. Bit rate : 384 kb/s
  48. Channel(s) : 6 channels
  49. Channel layout : L R C LFE Ls Rs
  50. Sampling rate : 48.0 kHz
  51. Frame rate : 31.250 FPS (1536 SPF)
  52. Bit depth : 16 bits
  53. Compression mode : Lossy
  54. Stream size : 275 MiB (5%)
  55. Language : Russian
  56. Service kind : Complete Main
  57. Default : Yes
  58. Forced : Yes

  59. Audio #2
  60. ID : 3
  61. Format : DTS
  62. Format/Info : Digital Theater Systems
  63. Codec ID : A_DTS
  64. Duration : 1 h 40 min
  65. Bit rate mode : Constant
  66. Bit rate : 768 kb/s
  67. Channel(s) : 6 channels
  68. Channel layout : C L R Ls Rs LFE
  69. Sampling rate : 48.0 kHz
  70. Frame rate : 93.750 FPS (512 SPF)
  71. Bit depth : 24 bits
  72. Compression mode : Lossy
  73. Stream size : 550 MiB (9%)
  74. Language : German
  75. Default : No
  76. Forced : No

  77. Text #1
  78. ID : 4
  79. Format : UTF-8
  80. Codec ID : S_TEXT/UTF8
  81. Codec ID/Info : UTF-8 Plain Text
  82. Duration : 48 min 22 s
  83. Bit rate : 0 b/s
  84. Count of elements : 7
  85. Stream size : 329 Bytes (0%)
  86. Title : Forced
  87. Language : German
  88. Default : No
  89. Forced : No

  90. Text #2
  91. ID : 5
  92. Format : VobSub
  93. Muxing mode : zlib
  94. Codec ID : S_VOBSUB
  95. Codec ID/Info : Picture based subtitle format used on DVDs
  96. Duration : 48 min 22 s
  97. Bit rate : 81 b/s
  98. Count of elements : 8
  99. Stream size : 28.9 KiB (0%)
  100. Title : Forced-VobSub
  101. Language : German
  102. Default : No
  103. Forced : No

  104. Text #3
  105. ID : 6
  106. Format : VobSub
  107. Muxing mode : zlib
  108. Codec ID : S_VOBSUB
  109. Codec ID/Info : Picture based subtitle format used on DVDs
  110. Duration : 1 h 33 min
  111. Bit rate : 3 253 b/s
  112. Count of elements : 861
  113. Stream size : 2.18 MiB (0%)
  114. Title : Full-VobSub
  115. Language : German
  116. Default : No
  117. Forced : No

  118. Menu
  119. 00:00:00.000 : en:00:00:00.000
  120. 00:03:53.208 : en:00:03:53.208
  121. 00:11:38.708 : en:00:11:38.708
  122. 00:19:38.917 : en:00:19:38.917
  123. 00:31:14.625 : en:00:31:14.625
  124. 00:43:26.917 : en:00:43:26.917
  125. 00:50:17.000 : en:00:50:17.000
  126. 01:03:45.750 : en:01:03:45.750
  127. 01:12:43.875 : en:01:12:43.875
  128. 01:21:31.250 : en:01:21:31.250
  129. 01:29:32.375 : en:01:29:32.375
  130. 01:34:36.250 : en:01:34:36.250
复制代码





游客,如果您要查看本帖隐藏内容请回复,您还可以免扣高清币免回复下载:https://www.85lou.com/plugin.php?id=wyfaka_url:url

回复

使用道具 举报

人气偶像

高清币
58
金钱
1799
鲜花
0
在线时间
209 小时
最后登录
2019-9-18
发表于 2019-9-6 23:08:30 | 显示全部楼层
机缘巧合之下发现了时间之门
回复 支持 1 反对 0

使用道具 举报

人气偶像

高清币
10
金钱
1439
鲜花
0
在线时间
195 小时
最后登录
2019-9-16
发表于 2019-9-6 23:08:23 | 显示全部楼层
楼主发贴辛苦了,谢谢楼主分享!我觉得中国高清论坛是注册对了!
回复 支持 1 反对 0

使用道具 举报

superstar

高清币
3896
金钱
12514
鲜花
0
在线时间
3766 小时
最后登录
2019-9-18
发表于 2019-9-6 23:06:28 | 显示全部楼层

这东西我收了!谢谢楼主!中国高清论坛真好!
回复 支持 1 反对 0

使用道具 举报

人气偶像

高清币
180
金钱
489
鲜花
0
在线时间
42 小时
最后登录
2019-9-17
发表于 2019-9-6 22:44:30 | 显示全部楼层
楼主发贴辛苦了,谢谢楼主分享!我觉得中国高清论坛是注册对了!
回复 支持 1 反对 0

使用道具 举报

金鸡奖主角

高清币
24
金钱
4050
鲜花
0
在线时间
427 小时
最后登录
2019-9-18
发表于 2019-9-6 22:43:07 | 显示全部楼层
旧金山的最后一个黑人

回复 支持 1 反对 0

使用道具 举报

超级明星

高清币
2151
金钱
5269
鲜花
0
在线时间
754 小时
最后登录
2019-9-18
发表于 2019-9-6 22:45:40 | 显示全部楼层

我看不错噢 谢谢楼主!中国高清论坛越来越好!
回复 支持 反对

使用道具 举报

金鸡奖主角

高清币
197
金钱
3503
鲜花
0
在线时间
973 小时
最后登录
2019-9-18
发表于 2019-9-6 22:50:09 | 显示全部楼层
楼主发贴辛苦了,谢谢楼主分享!我觉得中国高清论坛是注册对了!
回复 支持 反对

使用道具 举报

人气偶像

高清币
162
金钱
1302
鲜花
0
在线时间
231 小时
最后登录
2019-9-18
发表于 2019-9-6 22:50:47 | 显示全部楼层
楼主发贴辛苦了,谢谢楼主分享!我觉得中国高清论坛是注册对了!
回复 支持 反对

使用道具 举报

永恒神话

高清币
5184
金钱
23029
鲜花
0
在线时间
3276 小时
最后登录
2019-9-18
发表于 2019-9-6 22:59:22 | 显示全部楼层
谢楼主分享,有你更精彩
回复 支持 反对

使用道具 举报

影坛巨星

高清币
4102
金钱
5694
鲜花
0
在线时间
858 小时
最后登录
2019-9-18
发表于 2019-9-6 22:59:29 | 显示全部楼层

这东西我收了!谢谢楼主!中国高清论坛真好!
回复 支持 反对

使用道具 举报

金鸡奖主角

高清币
699
金钱
2707
鲜花
0
在线时间
273 小时
最后登录
2019-9-12
发表于 2019-9-6 23:01:54 | 显示全部楼层

既然你诚信诚意的推荐了,那我就勉为其难的看看吧!中国高清论坛不走平凡路。
回复 支持 反对

使用道具 举报

天王巨星

高清币
329
金钱
1673
鲜花
0
在线时间
294 小时
最后登录
2019-9-18
发表于 2019-9-6 23:02:46 | 显示全部楼层

这个帖子不回对不起自己!我想我是一天也不能离开中国高清论坛
回复 支持 反对

使用道具 举报

懒得打字嘛,点击右侧快捷回复 【右侧内容,后台自定义】
您需要登录后才可以回帖 登录 | 立即注册

本版积分规则

QQ|手机版|小黑屋|中国高清论坛 ( 黔ICP备16007815号-1 )

GMT+8, 2019-9-18 23:25 , Processed in 0.069081 second(s), 27 queries .

Powered by Discuz! X3.4

© 2001-2017 Comsenz Inc.

快速回复 返回顶部 返回列表