请选择 进入手机版 | 继续访问电脑版

中国高清论坛

 找回密码
 立即注册
搜索
查看: 3261|回复: 650

[剧情片] 特工/北风(台)/北寒谍战(港) The.Spy.Gone.North.2018.BDRip.1080p-Unknown 13.16 GiB

  [复制链接]

超级版主

高清币
17054
金钱
39553
鲜花
0
在线时间
12126 小时
最后登录
2019-9-18
发表于 2019-9-7 20:36:06 | 显示全部楼层 |阅读模式


◎译  名 特工/工作/北风(台)/北寒谍战(港)
◎片  名 The Spy Gone North / Gongjak
◎年  代 2018
◎国  家 韩国
◎类  别 剧情
◎语  言 韩语
◎IMDb评分 7.2/10 from 1942 users
◎IMDb链接 https://www.imdb.com/title/tt8290698/
◎片  长 2 h 17 min
◎导  演 尹钟彬 Jong-bin Yoon
◎主  演 黄政民 Jeong-min Hwang
       李圣旻 Sung-min Lee
       赵震雄 Jin-woong Jo
       朱智勋 Ji-hun Ju

◎简  介

  1990年代中期,暗号「黑金星」的南韩「国家安全企划部」情报员,假扮成南韩商人跟北韩进行商业交易,藉此渗透北韩军事单位,打探核开发情报,他得在最危险的地方,赢得敌方的信任,没想到一心只想完成任务的他,却在不自觉中陷入南北韩权力高层间的恐怖阴谋。
  1. General
  2. Unique ID : 163362959761346531453282862250890337401 (0x7AE68FC5121A3C5226CA1D1EEC839C79)
  3. Complete name : G:The.Spy.Gone.North.2018.BDRip.1080p.mkv
  4. Format : Matroska
  5. Format version : Version 4 / Version 2
  6. File size : 13.2 GiB
  7. Duration : 2 h 17 min
  8. Overall bit rate : 13.7 Mb/s
  9. Encoded date : UTC 2019-05-02 18:12:23
  10. Writing application : mkvmerge v20.0.0 ('I Am The Sun') 64-bit
  11. Writing library : libebml v1.3.5 + libmatroska v1.4.8

  12. Video
  13. ID : 1
  14. Format : AVC
  15. Format/Info : Advanced Video Codec
  16. Format profile : High@L4.1
  17. Format settings : CABAC / 5 Ref Frames
  18. Format settings, CABAC : Yes
  19. Format settings, RefFrames : 5 frames
  20. Codec ID : V_MPEG4/ISO/AVC
  21. Duration : 2 h 17 min
  22. Bit rate : 12.0 Mb/s
  23. Width : 1 920 pixels
  24. Height : 804 pixels
  25. Display aspect ratio : 2.40:1
  26. Frame rate mode : Constant
  27. Frame rate : 23.976 (24000/1001) FPS
  28. Color space : YUV
  29. Chroma subsampling : 4:2:0
  30. Bit depth : 8 bits
  31. Scan type : Progressive
  32. Bits/(Pixel*Frame) : 0.325
  33. Stream size : 11.5 GiB (88%)
  34. Writing library : x264 core 129 r2245 bc13772
  35. Encoding settings : cabac=1 / ref=5 / deblock=1:-3:-3 / analyse=0x3:0x133 / me=umh / subme=11 / psy=1 / psy_rd=1.05:0.05 / mixed_ref=1 / me_range=64 / chroma_me=1 / trellis=2 / 8x8dct=1 / cqm=0 / deadzone=21,11 / fast_pskip=0 / chroma_qp_offset=-3 / threads=12 / lookahead_threads=2 / sliced_threads=0 / nr=0 / decimate=1 / interlaced=0 / bluray_compat=0 / constrained_intra=0 / bframes=8 / b_pyramid=2 / b_adapt=2 / b_bias=0 / direct=3 / weightb=1 / open_gop=0 / weightp=2 / keyint=250 / keyint_min=23 / scenecut=40 / intra_refresh=0 / rc_lookahead=60 / rc=2pass / mbtree=1 / bitrate=12017 / ratetol=1.0 / qcomp=0.60 / qpmin=0 / qpmax=69 / qpstep=4 / cplxblur=20.0 / qblur=0.5 / vbv_maxrate=40000 / vbv_bufsize=30000 / nal_hrd=none / ip_ratio=1.40 / aq=1:0.80
  36. Language : English
  37. Default : Yes
  38. Forced : No

  39. Audio #1
  40. ID : 2
  41. Format : AC-3
  42. Format/Info : Audio Coding 3
  43. Codec ID : A_AC3
  44. Duration : 2 h 17 min
  45. Bit rate mode : Constant
  46. Bit rate : 192 kb/s
  47. Channel(s) : 2 channels
  48. Channel positions : Front: L R
  49. Sampling rate : 48.0 kHz
  50. Frame rate : 31.250 FPS (1536 SPF)
  51. Bit depth : 16 bits
  52. Compression mode : Lossy
  53. Stream size : 189 MiB (1%)
  54. Title : MVO, HDrezka Studio
  55. Language : Russian
  56. Service kind : Complete Main
  57. Default : Yes
  58. Forced : No

  59. Audio #2
  60. ID : 3
  61. Format : DTS
  62. Format/Info : Digital Theater Systems
  63. Codec ID : A_DTS
  64. Duration : 2 h 17 min
  65. Bit rate mode : Constant
  66. Bit rate : 1 509 kb/s
  67. Channel(s) : 6 channels
  68. Channel positions : Front: L C R, Side: L R, LFE
  69. Sampling rate : 48.0 kHz
  70. Frame rate : 93.750 FPS (512 SPF)
  71. Bit depth : 24 bits
  72. Compression mode : Lossy
  73. Stream size : 1.45 GiB (11%)
  74. Language : Korean
  75. Default : No
  76. Forced : No

  77. Text
  78. ID : 4
  79. Format : UTF-8
  80. Codec ID : S_TEXT/UTF8
  81. Codec ID/Info : UTF-8 Plain Text
  82. Duration : 2 h 12 min
  83. Bit rate : 57 b/s
  84. Count of elements : 1589
  85. Stream size : 56.4 KiB (0%)
  86. Language : English
  87. Default : No
  88. Forced : No
复制代码




游客,如果您要查看本帖隐藏内容请回复,您还可以免扣高清币免回复下载:https://www.85lou.com/plugin.php?id=wyfaka_url:url
回复

使用道具 举报

天王巨星

高清币
849
金钱
1588
鲜花
0
在线时间
258 小时
最后登录
2019-9-18
发表于 2019-9-7 20:47:38 | 显示全部楼层
楼主发贴辛苦了,谢谢楼主分享!我觉得中国高清论坛是注册对了!
回复 支持 反对

使用道具 举报

金鸡奖主角

高清币
1
金钱
3110
鲜花
0
在线时间
327 小时
最后登录
2019-9-12
发表于 2019-9-7 20:48:36 | 显示全部楼层

楼主太厉害了!楼主,电影应该很好看我觉得中国高清论坛真是个好地方!
回复 支持 反对

使用道具 举报

金鸡奖主角

高清币
1
金钱
3110
鲜花
0
在线时间
327 小时
最后登录
2019-9-12
发表于 2019-9-7 20:48:52 | 显示全部楼层

既然你诚信诚意的推荐了,那我就勉为其难的看看吧!中国高清论坛不走平凡路。
回复 支持 反对

使用道具 举报

金鸡奖主角

高清币
121
金钱
4739
鲜花
0
在线时间
427 小时
最后登录
2019-9-14
发表于 2019-9-7 20:51:56 | 显示全部楼层
楼主发贴辛苦了,谢谢楼主分享!我觉得中国高清论坛是注册对了!
回复 支持 反对

使用道具 举报

永恒神话

高清币
9018
金钱
17842
鲜花
0
在线时间
2047 小时
最后登录
2019-9-18
发表于 2019-9-7 20:53:41 | 显示全部楼层
楼主发贴辛苦了,谢谢楼主分享!我觉得中国高清论坛是注册对了!
回复 支持 反对

使用道具 举报

永恒神话

高清币
5392
金钱
16281
鲜花
0
在线时间
3074 小时
最后登录
2019-9-18
发表于 2019-9-7 20:55:01 | 显示全部楼层
感谢楼主分享高清资源!
回复 支持 反对

使用道具 举报

知名艺人

高清币
10
金钱
470
鲜花
0
在线时间
67 小时
最后登录
2019-9-7
发表于 2019-9-7 20:58:06 | 显示全部楼层
楼主发贴辛苦了,谢谢楼主分享!
回复 支持 反对

使用道具 举报

金鸡奖主角

高清币
144
金钱
4398
鲜花
0
在线时间
981 小时
最后登录
2019-9-15
发表于 2019-9-7 20:59:02 | 显示全部楼层

既然你诚信诚意的推荐了,那我就勉为其难的看看吧!中国高清论坛不走平凡路。
回复 支持 反对

使用道具 举报

天王巨星

高清币
837
金钱
1260
鲜花
0
在线时间
248 小时
最后登录
2019-9-18
发表于 2019-9-7 21:00:43 | 显示全部楼层

这个帖子不回对不起自己!我想我是一天也不能离开中国高清论坛
回复 支持 反对

使用道具 举报

懒得打字嘛,点击右侧快捷回复 【右侧内容,后台自定义】
您需要登录后才可以回帖 登录 | 立即注册

本版积分规则

QQ|手机版|小黑屋|中国高清论坛 ( 黔ICP备16007815号-1 )

GMT+8, 2019-9-18 23:32 , Processed in 0.060556 second(s), 26 queries .

Powered by Discuz! X3.4

© 2001-2017 Comsenz Inc.

快速回复 返回顶部 返回列表