请选择 进入手机版 | 继续访问电脑版

中国高清论坛

 找回密码
 立即注册
搜索
查看: 3983|回复: 712

[剧情片] 十年日本 [内嵌繁简英字幕] Ten.Years.Japan.2018.JAPANESE.1080p.BluRay.X264-WiKi

  [复制链接]

超级版主

高清币
17054
金钱
39553
鲜花
0
在线时间
12126 小时
最后登录
2019-9-18
发表于 2019-9-7 20:35:46 | 显示全部楼层 |阅读模式


导演: 石川庆 / 早川千绘 / 木下雄介 / 津野爱 / 藤村明世
主演: 杉咲花 / 仲野太贺 / 川口觉 / 池胁千鹤 / 国村隼
类型: 剧情
官方网站: tenyearsjapan.com
制片国家/地区: 日本
语言: 日语
上映日期: 2018-11-03(日本)
片长: 99分钟
又名: Ten Years Japan
IMDb链接: tt7521860

剧情简介

  「十年电影工作室」指出,是枝裕和跟高松美由纪、水野咏子、Jason Gray 和福间美由纪这几位制作人合作,挑选了五名日本导演执导新片,他们分别是石川庆、木下雄介、津野爱、早川千絵和藤村明世。
  《十年日本》将会描写未来的日本,污染令人窒息,同时又深受人口老化困扰,科技依然日新月异,却不再受人控制,把玩弄人的道德和个人历史,颠覆人性,战争幽灵亦步亦趋,日本只见一片迷蒙。

  1. Video
  2. ID : 1
  3. Format : AVC
  4. Format/Info : Advanced Video Codec
  5. Format profile : High@L4.1
  6. Format settings : CABAC / 4 Ref Frames
  7. Format settings, CABAC : Yes
  8. Format settings, Reference frames : 4 frames
  9. Codec ID : V_MPEG4/ISO/AVC
  10. Duration : 1 h 38 min
  11. Bit rate : 12.2 Mb/s
  12. Width : 1 920 pixels
  13. Height : 1 038 pixels
  14. Display aspect ratio : 1.85:1
  15. Frame rate mode : Constant
  16. Frame rate : 23.976 (24000/1001) FPS
  17. Color space : YUV
  18. Chroma subsampling : 4:2:0
  19. Bit depth : 8 bits
  20. Scan type : Progressive
  21. Bits/(Pixel*Frame) : 0.255
  22. Stream size : 8.42 GiB (95%)
  23. Writing library : x264 core 157 r2867+103 0d6443f t_mod_Custom_2 [8-bit@all X86_64]
  24. Encoding settings : cabac=1 / ref=4 / deblock=1:-3:-3 / analyse=0x3:0x133 / me=umh / subme=10 / psy=1 / fade_compensate=0.00 / psy_rd=1.00:0.00 / mixed_ref=1 / me_range=32 / chroma_me=1 / trellis=2 / 8x8dct=1 / cqm=0 / deadzone=21,11 / fast_pskip=0 / chroma_qp_offset=-2 / threads=24 / lookahead_threads=4 / sliced_threads=0 / nr=0 / decimate=0 / interlaced=0 / bluray_compat=0 / constrained_intra=0 / fgo=0 / bframes=7 / b_pyramid=2 / b_adapt=2 / b_bias=0 / direct=3 / weightb=1 / open_gop=0 / weightp=2 / keyint=250 / keyint_min=23 / scenecut=40 / intra_refresh=0 / rc_lookahead=60 / rc=crf / mbtree=0 / crf=16.7000 / qcomp=0.65 / qpmin=0:0:0 / qpmax=69:69:69 / qpstep=4 / vbv_maxrate=62500 / vbv_bufsize=78125 / crf_max=0.0 / nal_hrd=none / filler=0 / ip_ratio=1.30 / pb_ratio=1.20 / aq=3:0.80 / aq-sensitivity=10.00 / aq-factor=1.00:1.00:1.00 / aq2=0 / aq3=0
  25. Language : English
  26. Default : Yes
  27. Forced : No

  28. Audio
  29. ID : 2
  30. Format : AC-3
  31. Format/Info : Audio Coding 3
  32. Commercial name : Dolby Digital
  33. Codec ID : A_AC3
  34. Duration : 1 h 38 min
  35. Bit rate mode : Constant
  36. Bit rate : 640 kb/s
  37. Channel(s) : 6 channels
  38. Channel layout : L R C LFE Ls Rs
  39. Sampling rate : 48.0 kHz
  40. Frame rate : 31.250 FPS (1536 SPF)
  41. Bit depth : 16 bits
  42. Compression mode : Lossy
  43. Stream size : 453 MiB (5%)
  44. Language : Japanese
  45. Service kind : Complete Main
  46. Default : Yes
  47. Forced : No

  48. Text #1
  49. ID : 3
  50. Format : UTF-8
  51. Codec ID : S_TEXT/UTF8
  52. Codec ID/Info : UTF-8 Plain Text
  53. Duration : 1 h 33 min
  54. Bit rate : 22 b/s
  55. Count of elements : 647
  56. Stream size : 15.5 KiB (0%)
  57. Title : CHS
  58. Language : Chinese
  59. Default : No
  60. Forced : No

  61. Text #2
  62. ID : 4
  63. Format : UTF-8
  64. Codec ID : S_TEXT/UTF8
  65. Codec ID/Info : UTF-8 Plain Text
  66. Duration : 1 h 33 min
  67. Bit rate : 22 b/s
  68. Count of elements : 647
  69. Stream size : 15.5 KiB (0%)
  70. Title : CHT
  71. Language : Chinese
  72. Default : No
  73. Forced : No

  74. Text #3
  75. ID : 5
  76. Format : UTF-8
  77. Codec ID : S_TEXT/UTF8
  78. Codec ID/Info : UTF-8 Plain Text
  79. Duration : 1 h 33 min
  80. Bit rate : 25 b/s
  81. Count of elements : 650
  82. Stream size : 17.5 KiB (0%)
  83. Language : English
  84. Default : No
  85. Forced : No

  86. Menu
  87. 00:00:00.000 : en:00:00:00.000
  88. 00:12:50.061 : en:00:12:50.061
  89. 00:18:35.906 : en:00:18:35.906
  90. 00:26:21.163 : en:00:26:21.163
  91. 00:38:15.668 : en:00:38:15.668
  92. 00:46:29.120 : en:00:46:29.120
  93. 00:57:12.429 : en:00:57:12.429
  94. 01:05:52.740 : en:01:05:52.740
  95. 01:12:30.763 : en:01:12:30.763
  96. 01:16:21.202 : en:01:16:21.202
  97. 01:25:40.427 : en:01:25:40.427
  98. 01:34:53.855 : en:01:34:53.855
复制代码

[size=10.6667px]
[size=10.6667px]

游客,如果您要查看本帖隐藏内容请回复,您还可以免扣高清币免回复下载:https://www.85lou.com/plugin.php?id=wyfaka_url:url

回复

使用道具 举报

金鸡奖主角

高清币
314
金钱
4544
鲜花
0
在线时间
775 小时
最后登录
2019-9-18
发表于 2019-9-7 20:42:26 | 显示全部楼层
感谢楼主分享!
回复 支持 反对

使用道具 举报

天王巨星

高清币
848
金钱
1587
鲜花
0
在线时间
258 小时
最后登录
2019-9-18
发表于 2019-9-7 20:48:16 | 显示全部楼层
楼主发贴辛苦了,谢谢楼主分享!我觉得中国高清论坛是注册对了!
回复 支持 反对

使用道具 举报

天王巨星

高清币
696
金钱
1391
鲜花
0
在线时间
294 小时
最后登录
2019-9-18
发表于 2019-9-7 20:49:36 | 显示全部楼层
楼主发贴辛苦了,谢谢楼主分享!我觉得中国高清论坛是注册对了!
回复 支持 反对

使用道具 举报

永恒神话

高清币
9449
金钱
30673
鲜花
0
在线时间
2230 小时
最后登录
2019-9-18
发表于 2019-9-7 20:49:40 | 显示全部楼层
楼主发贴辛苦了,谢谢楼主分享!我觉得中国高清论坛是注册对了!
回复 支持 反对

使用道具 举报

金鸡奖主角

高清币
121
金钱
4739
鲜花
0
在线时间
427 小时
最后登录
2019-9-14
发表于 2019-9-7 20:54:07 | 显示全部楼层

楼主太厉害了!楼主,电影应该很好看我觉得中国高清论坛真是个好地方!
回复 支持 反对

使用道具 举报

永恒神话

高清币
9018
金钱
17842
鲜花
0
在线时间
2047 小时
最后登录
2019-9-18
发表于 2019-9-7 20:54:36 | 显示全部楼层
楼主发贴辛苦了,谢谢楼主分享!我觉得中国高清论坛是注册对了!
回复 支持 反对

使用道具 举报

知名艺人

高清币
2
金钱
548
鲜花
0
在线时间
80 小时
最后登录
2019-9-14
发表于 2019-9-7 20:56:08 | 显示全部楼层
非常感谢分享!!!!!
回复 支持 反对

使用道具 举报

永恒神话

高清币
5392
金钱
16281
鲜花
0
在线时间
3074 小时
最后登录
2019-9-18
发表于 2019-9-7 20:56:20 | 显示全部楼层
感谢楼主分享高清资源!
回复 支持 反对

使用道具 举报

天王巨星

高清币
366
金钱
1720
鲜花
0
在线时间
386 小时
最后登录
2019-9-18
发表于 2019-9-7 20:58:08 | 显示全部楼层
楼主发贴辛苦了,谢谢楼主分享!我觉得中国高清论坛是注册对了!
回复 支持 反对

使用道具 举报

懒得打字嘛,点击右侧快捷回复 【右侧内容,后台自定义】
您需要登录后才可以回帖 登录 | 立即注册

本版积分规则

QQ|手机版|小黑屋|中国高清论坛 ( 黔ICP备16007815号-1 )

GMT+8, 2019-9-18 23:24 , Processed in 0.053831 second(s), 26 queries .

Powered by Discuz! X3.4

© 2001-2017 Comsenz Inc.

快速回复 返回顶部 返回列表