请选择 进入手机版 | 继续访问电脑版

中国高清论坛

 找回密码
 立即注册
搜索
查看: 3432|回复: 742

[喜剧片] 极限职业 Extreme.Job.2019.KOREAN.1080p.BluRay.x264.DTS-HD.MA.5.1-CHD 10.22 GiB

  [复制链接]

超级版主

高清币
17054
金钱
39553
鲜花
0
在线时间
12126 小时
最后登录
2019-9-18
发表于 2019-9-8 15:52:54 | 显示全部楼层 |阅读模式



◎译  名 极限职业/极端职业/炸鸡特攻队(港)/鸡不可失(台)
◎片  名 Geukhanjikeob /Extreme Job/극한직업
◎年  代 2018
◎国  家 韩国
◎类  别 喜剧
◎语  言 韩语
◎IMDb评分 7.5/10 from 490 users
◎IMDB链接 https://www.imdb.com/title/tt9541602/[/colo]
◎片  长 1 h 51 min   
◎导  演 李炳宪 Byeong-Heon Lee
◎主  演 柳承龙 Seung-yong Ryoo
       李东辉 Dong-Hwi Lee
       李荷妮 Ha-nui Lee
       陈善圭 Seon-kyu Jin
       申河均 Ha-kyun Shin

◎简  介

  一支由5位掉漆警探组成的缉毒小组,因办事不力被长官钉得满头包,成天埋伏在毒贩巢穴对面的炸鸡店中监视,案情也毫无进展。既然每天都得待在炸鸡店,不如动手卖起炸鸡,看似无厘头的决定,竟让鲁蛇警探们意外找到事业第二春,卖到吓吓叫的神级美味炸鸡,让餐厅一夕爆红,订单电话接到手软!副业做太大的警探们有办法达成使命吗?对面的毒贩又是否会闻香而来呢?

  1. Video
  2. ID : 1
  3. Format : AVC
  4. Format/Info : Advanced Video Codec
  5. Format profile : [email]High@L4.1[/email]
  6. Format settings : CABAC / 4 Ref Frames
  7. Format settings, CABAC : Yes
  8. Format settings, Reference frames : 4 frames
  9. Codec ID : V_MPEG4/ISO/AVC
  10. Duration : 1 h 51 min
  11. Bit rate : 11.1 Mb/s
  12. Width : 1 920 pixels
  13. Height : 804 pixels
  14. Display aspect ratio : 2.40:1
  15. Frame rate mode : Constant
  16. Frame rate : 24.000 FPS
  17. Color space : YUV
  18. Chroma subsampling : 4:2:0
  19. Bit depth : 8 bits
  20. Scan type : Progressive
  21. Bits/(Pixel*Frame) : 0.299
  22. Stream size : 8.60 GiB (84%)
  23. Writing library : x264 core 157 r2867+150 7e91e0e t_mod_Custom_2 [8-bit@all X86_64]
  24. Encoding settings : cabac=1 / ref=4 / deblock=1:-3:-3 / analyse=0x3:0x133 / me=umh / subme=11 / psy=1 / fade_compensate=0.00 / psy_rd=0.90:0.10 / mixed_ref=1 / me_range=64 / chroma_me=1 / trellis=2 / 8x8dct=1 / cqm=0 / deadzone=21,11 / fast_pskip=0 / chroma_qp_offset=-4 / threads=25 / lookahead_threads=4 / sliced_threads=0 / nr=0 / decimate=1 / interlaced=0 / bluray_compat=0 / constrained_intra=0 / fgo=0 / bframes=8 / b_pyramid=2 / b_adapt=2 / b_bias=0 / direct=3 / weightb=1 / open_gop=0 / weightp=2 / keyint=250 / keyint_min=24 / scenecut=40 / intra_refresh=0 / rc_lookahead=60 / rc=crf / mbtree=0 / crf=18.0000 / qcomp=0.70 / qpmin=0:0:0 / qpmax=69:69:69 / qpstep=4 / vbv_maxrate=35000 / vbv_bufsize=35000 / crf_max=0.0 / nal_hrd=none / filler=0 / ip_ratio=1.40 / pb_ratio=1.30 / aq=3:1.00 / aq-sensitivity=10.00 / aq-factor=1.00:1.00:1.00 / aq2=0 / aq3=0
  25. Language : Korean
  26. Default : Yes
  27. Forced : No

  28. Audio
  29. ID : 2
  30. Format : DTS XLL
  31. Format/Info : Digital Theater Systems
  32. Commercial name : DTS-HD Master Audio
  33. Codec ID : A_DTS
  34. Duration : 1 h 51 min
  35. Bit rate mode : Variable
  36. Bit rate : 2 049 kb/s
  37. Channel(s) : 6 channels
  38. Channel layout : C L R Ls Rs LFE
  39. Sampling rate : 48.0 kHz
  40. Frame rate : 93.750 FPS (512 SPF)
  41. Bit depth : 16 bits
  42. Compression mode : Lossless
  43. Stream size : 1.59 GiB (16%)
  44. Language : Korean
  45. Default : Yes
  46. Forced : No

  47. Text #1
  48. ID : 3
  49. Format : UTF-8
  50. Codec ID : S_TEXT/UTF8
  51. Codec ID/Info : UTF-8 Plain Text
  52. Duration : 1 h 47 min
  53. Bit rate : 52 b/s
  54. Count of elements : 1607
  55. Stream size : 41.5 KiB (0%)
  56. Title : English-SRT
  57. Language : English
  58. Default : No
  59. Forced : No

  60. Text #2
  61. ID : 4
  62. Format : PGS
  63. Muxing mode : zlib
  64. Codec ID : S_HDMV/PGS
  65. Codec ID/Info : Picture based subtitle format used on BDs/HD-DVDs
  66. Duration : 1 h 47 min
  67. Bit rate : 42.2 kb/s
  68. Count of elements : 3212
  69. Stream size : 32.3 MiB (0%)
  70. Title : English-PGS
  71. Language : English
  72. Default : No
  73. Forced : No

  74. Text #3
  75. ID : 5
  76. Format : PGS
  77. Muxing mode : zlib
  78. Codec ID : S_HDMV/PGS
  79. Codec ID/Info : Picture based subtitle format used on BDs/HD-DVDs
  80. Duration : 1 h 46 min
  81. Bit rate : 32.8 kb/s
  82. Count of elements : 3205
  83. Stream size : 25.1 MiB (0%)
  84. Title : Chinese-PGS
  85. Language : Chinese
  86. Default : Yes
  87. Forced : No

  88. Menu
  89. 00:00:00.000 : en:绗?01 绔?
  90. 00:07:25.292 : en:绗?02 绔?
  91. 00:17:20.125 : en:绗?03 绔?
  92. 00:26:57.583 : en:绗?04 绔?
  93. 00:35:21.125 : en:绗?05 绔?
  94. 00:46:18.083 : en:绗?06 绔?
  95. 00:56:10.750 : en:绗?07 绔?
  96. 01:04:23.667 : en:绗?08 绔?
  97. 01:13:56.333 : en:绗?09 绔?
  98. 01:23:06.583 : en:绗?10 绔?
  99. 01:31:29.917 : en:绗?11 绔?
  100. 01:39:09.042 : en:绗?12 绔?
复制代码







游客,如果您要查看本帖隐藏内容请回复,您还可以免扣高清币免回复下载:https://www.85lou.com/plugin.php?id=wyfaka_url:url


回复

使用道具 举报

人气偶像

高清币
0
金钱
964
鲜花
0
在线时间
225 小时
最后登录
2019-9-15
发表于 2019-9-8 15:55:33 | 显示全部楼层

楼主发贴辛苦了,谢谢楼主分享!
回复 支持 反对

使用道具 举报

金鸡奖主角

高清币
19
金钱
4470
鲜花
0
在线时间
848 小时
最后登录
2019-9-16
发表于 2019-9-8 15:55:39 | 显示全部楼层
这个是不是抄袭龙虾刑警的
回复 支持 反对

使用道具 举报

永恒神话

高清币
6791
金钱
12543
鲜花
0
在线时间
1142 小时
最后登录
2019-9-18
发表于 2019-9-8 15:56:32 | 显示全部楼层

感谢楼主的无私分享!要想中国高清论坛好 就靠你我他
回复 支持 反对

使用道具 举报

超级明星

高清币
906
金钱
8070
鲜花
0
在线时间
3211 小时
最后登录
2019-9-18
发表于 2019-9-8 15:57:21 | 显示全部楼层

感谢楼主的无私分享!要想中国高清论坛好 就靠你我他
回复 支持 反对

使用道具 举报

超级明星

高清币
879
金钱
7565
鲜花
0
在线时间
1817 小时
最后登录
2019-9-18
发表于 2019-9-8 16:00:41 | 显示全部楼层
发贴辛苦了,谢谢楼主分享!
回复 支持 反对

使用道具 举报

永恒神话

高清币
11578
金钱
13917
鲜花
0
在线时间
683 小时
最后登录
2019-9-18
发表于 2019-9-8 16:01:04 | 显示全部楼层

我看不错噢 谢谢楼主!中国高清论坛越来越好!
回复 支持 反对

使用道具 举报

超级明星

高清币
18
金钱
8475
鲜花
0
在线时间
1338 小时
最后登录
2019-9-18
发表于 2019-9-8 16:09:17 | 显示全部楼层
楼主发贴辛苦了,谢谢楼主分享!我觉得中国高清论坛是注册对了!
回复 支持 反对

使用道具 举报

superstar

高清币
3001
金钱
12219
鲜花
0
在线时间
1795 小时
最后登录
2019-9-18
发表于 2019-9-8 16:10:33 | 显示全部楼层

这东西我收了!谢谢楼主!中国高清论坛真好!
  
回复 支持 反对

使用道具 举报

人气偶像

高清币
277
金钱
307
鲜花
0
在线时间
0 小时
最后登录
2019-9-10
发表于 2019-9-8 16:10:57 | 显示全部楼层
确实不用下载视频 而且还给免费使用 良心软件
回复 支持 反对

使用道具 举报

懒得打字嘛,点击右侧快捷回复 【右侧内容,后台自定义】
您需要登录后才可以回帖 登录 | 立即注册

本版积分规则

QQ|手机版|小黑屋|中国高清论坛 ( 黔ICP备16007815号-1 )

GMT+8, 2019-9-18 23:45 , Processed in 0.061151 second(s), 26 queries .

Powered by Discuz! X3.4

© 2001-2017 Comsenz Inc.

快速回复 返回顶部 返回列表