请选择 进入手机版 | 继续访问电脑版

中国高清论坛

 找回密码
 立即注册
搜索
查看: 1328|回复: 244

[喜剧片] 裸婚大喜/裸.Naked.2017.1080p.NF.WEBRip.DDP5.1.x264-QOQ

  [复制链接]

高清发布组长

高清币
1680
金钱
3516
鲜花
0
在线时间
279 小时
最后登录
2019-9-18
发表于 2019-9-10 08:08:25 | 显示全部楼层 |阅读模式


◎译  名 裸婚大喜 / 裸(台)
◎片  名 Naked
◎年  代 2017
◎产  地 美国
◎类  别 喜剧 / 爱情 / 奇幻
◎语  言 英语
◎上映日期 2017-08-11(美国)
◎IMDb评分 5.4/10 from 14869 users
◎IMDb链接 http://www.imdb.com/title/tt6048930
◎豆瓣评分 5.7/10 from 1518 users
◎豆瓣链接 https://movie.douban.com/subject/26992159/
◎片  长 96分钟
◎导  演 迈克尔·泰兹 Michael Tiddes
◎编  剧 里克·阿尔瓦雷斯 Rick Alvarez / 马丁·纳森 M?rten Knutsson / 托克尔·纳森 Torkel Knutsson / 科里·科勒 Cory Koller / 马龙·韦恩斯 Marlon Wayans
◎主  演 马龙·韦恩斯 Marlon Wayans
      雷吉娜·赫尔 Regina Hall
      丹尼斯·海斯伯特 Dennis Haysbert
      J·T·杰克逊 J.T. Jackson
      斯考特·佛雷 Scott Foley
      伊丽莎·库伯 Eliza Coupe
      布莱恩·麦肯奈特 Brian McKnight
      洛雷塔·迪瓦恩 Loretta Devine
      科里·哈德里克 Cory Hardrict
      里克·菲茨 Rick Fitts
      戴夫·谢里登 Dave Sheridan
      小尼尔·布朗 Neil Brown Jr.
      妮科娃·斯特普尔顿 Nikeva Stapleton
      大卫·德怀尔 David Dwyer
      康纳·布罗菲 Conor Brophy
      贾罗德·瓦尔沃 Jarod Valvo
      杰森·戴维斯 Jason Davis
      马修·康威尔 Matthew Cornwell
      乔尔·拉什 Joel Rush
      朱万达斯·坎迪斯 Jwaundace Candece
      Labrandon Shead
      Jeff Coopwood
      David Dman Escobar
      布伦特·莫雷尔·加斯金斯 Brent Moorer Gaskins
      朱尔斯·黑文 Jules Haven
      敏卡·凯利 Minka Kelly
      Jack Landry
      贾德·罗德曼 Judd Lormand
      杰瑞米·赛克斯 Jeremy Sykes


◎标  签 喜剧 | 美国 | 搞笑 | 爱情 | Netflix | 奇幻 | 2017 | 荒诞

◎简  介

  Netflix出品美国喜剧。由《鬼屋电影》、《惊声尖笑》原班人马最打造剧,改编瑞典R级喜剧《婚前兴行为》,出过爆笑喜剧《小姐好白》的马龙韦恩斯担纲裸男主,讲述新郎在结婚当日早晨,发现自己全裸在电梯间内,他不得不寻找衣服,钱和交通工具,赶往婚礼现场。但事宜愿为,不断地受挫后他回到了家中睡觉,而第二天他又从电梯间裸体醒来,陷入无限循环。
Video
ID : 1
Format : AVC
Format/Info : Advanced Video Codec
Format profile : Main@L4
Format settings : CABAC / 3 Ref Frames
Format settings, CABAC : Yes
Format settings, Reference frames : 3 frames
Codec ID : V_MPEG4/ISO/AVC
Duration : 1 h 36 min
Bit rate mode : Variable
Bit rate : 4 640 kb/s
Maximum bit rate : 6 960 kb/s
Width : 1 920 pixels
Height : 1 080 pixels
Display aspect ratio : 16:9
Frame rate mode : Constant
Frame rate : 23.976 (24000/1001) FPS
Color space : YUV
Chroma subsampling : 4:2:0
Bit depth : 8 bits
Scan type : Progressive
Bits/(Pixel*Frame) : 0.093
Stream size : 3.12 GiB (88%)
Writing library : x264 core 148 r2715 7e75228
Encoding settings : cabac=1 / ref=3 / deblock=1:0:0 / analyse=0x1:0x111 / me=umh / subme=10 / psy=1 / psy_rd=1.00:0.00 / mixed_ref=1 / me_range=24 / chroma_me=1 / trellis=2 / 8x8dct=0 / cqm=0 / deadzone=21,11 / fast_pskip=1 / chroma_qp_offset=-2 / threads=8 / lookahead_threads=1 / sliced_threads=0 / nr=0 / decimate=1 / interlaced=0 / bluray_compat=0 / stitchable=1 / constrained_intra=0 / bframes=2 / b_pyramid=0 / b_adapt=2 / b_bias=0 / direct=3 / weightb=1 / open_gop=0 / weightp=2 / keyint=48 / keyint_min=25 / scenecut=0 / intra_refresh=0 / rc_lookahead=48 / rc=2pass / mbtree=1 / bitrate=4640 / ratetol=1.0 / qcomp=0.50 / qpmin=6 / qpmax=51 / qpstep=4 / cplxblur=20.0 / qblur=0.5 / vbv_maxrate=6960 / vbv_bufsize=9280 / nal_hrd=vbr / filler=0 / ip_ratio=1.40 / aq=1:1.00
Default : Yes
Forced : No

Audio
ID : 2
Format : E-AC-3
Format/Info : Enhanced AC-3
Commercial name : Dolby Digital Plus
Codec ID : A_EAC3
Duration : 1 h 36 min
Bit rate mode : Constant
Bit rate : 640 kb/s
Channel(s) : 6 channels
Channel layout : L R C LFE Ls Rs
Sampling rate : 48.0 kHz
Frame rate : 31.250 FPS (1536 SPF)
Compression mode : Lossy
Stream size : 443 MiB (12%)
Title : English
Language : English
Service kind : Complete Main
Default : Yes
Forced : No

Text #1
ID : 3
Format : UTF-8
Codec ID : S_TEXT/UTF8
Codec ID/Info : UTF-8 Plain Text
Duration : 2 s 210 ms
Bit rate : 112 b/s
Count of elements : 1
Stream size : 31.0 Bytes (0%)
Title : Forced
Language : English
Default : Yes
Forced : Yes

Text #2
ID : 4
Format : UTF-8
Codec ID : S_TEXT/UTF8
Codec ID/Info : UTF-8 Plain Text
Duration : 1 h 28 min
Bit rate : 80 b/s
Count of elements : 1522
Stream size : 52.3 KiB (0%)
Language : English
Default : No
Forced : No

Text #3
ID : 5
Format : UTF-8
Codec ID : S_TEXT/UTF8
Codec ID/Info : UTF-8 Plain Text
Duration : 1 h 29 min
Bit rate : 86 b/s
Count of elements : 1690
Stream size : 56.6 KiB (0%)
Title : SDH
Language : English
Default : No
Forced : No

Text #4
ID : 6
Format : UTF-8
Codec ID : S_TEXT/UTF8
Codec ID/Info : UTF-8 Plain Text
Duration : 1 h 31 min
Bit rate : 109 b/s
Count of elements : 1454
Stream size : 73.6 KiB (0%)
Language : Arabic
Default : No
Forced : No

Text #5
ID : 7
Format : UTF-8
Codec ID : S_TEXT/UTF8
Codec ID/Info : UTF-8 Plain Text
Duration : 1 h 31 min
Bit rate : 64 b/s
Count of elements : 1423
Stream size : 43.3 KiB (0%)
Language : Danish
Default : No
Forced : No

Text #6
ID : 8
Format : UTF-8
Codec ID : S_TEXT/UTF8
Codec ID/Info : UTF-8 Plain Text
Duration : 1 h 36 min
Bit rate : 59 b/s
Count of elements : 1397
Stream size : 42.1 KiB (0%)
Language : German
Default : No
Forced : No

Text #7
ID : 9
Format : UTF-8
Codec ID : S_TEXT/UTF8
Codec ID/Info : UTF-8 Plain Text
Duration : 1 h 31 min
Bit rate : 108 b/s
Count of elements : 1431
Stream size : 72.6 KiB (0%)
Language : Greek
Default : No
Forced : No

Text #8
ID : 10
Format : UTF-8
Codec ID : S_TEXT/UTF8
Codec ID/Info : UTF-8 Plain Text
Duration : 1 h 35 min
Bit rate : 59 b/s
Count of elements : 1443
Stream size : 41.7 KiB (0%)
Language : Spanish
Default : No
Forced : No

Text #9
ID : 11
Format : UTF-8
Codec ID : S_TEXT/UTF8
Codec ID/Info : UTF-8 Plain Text
Duration : 1 h 31 min
Bit rate : 66 b/s
Count of elements : 1410
Stream size : 44.5 KiB (0%)
Title : European
Language : Spanish
Default : No
Forced : No

Text #10
ID : 12
Format : UTF-8
Codec ID : S_TEXT/UTF8
Codec ID/Info : UTF-8 Plain Text
Duration : 1 h 31 min
Bit rate : 56 b/s
Count of elements : 1305
Stream size : 37.8 KiB (0%)
Language : Finnish
Default : No
Forced : No

Text #11
ID : 13
Format : UTF-8
Codec ID : S_TEXT/UTF8
Codec ID/Info : UTF-8 Plain Text
Duration : 1 h 31 min
Bit rate : 59 b/s
Count of elements : 1362
Stream size : 40.0 KiB (0%)
Language : French
Default : No
Forced : No

Text #12
ID : 14
Format : UTF-8
Codec ID : S_TEXT/UTF8
Codec ID/Info : UTF-8 Plain Text
Duration : 1 h 31 min
Bit rate : 100 b/s
Count of elements : 1449
Stream size : 67.5 KiB (0%)
Language : Hebrew
Default : No
Forced : No

Text #13
ID : 15
Format : UTF-8
Codec ID : S_TEXT/UTF8
Codec ID/Info : UTF-8 Plain Text
Duration : 1 h 31 min
Bit rate : 66 b/s
Count of elements : 1441
Stream size : 44.7 KiB (0%)
Language : Italian
Default : No
Forced : No

Text #14
ID : 16
Format : UTF-8
Codec ID : S_TEXT/UTF8
Codec ID/Info : UTF-8 Plain Text
Duration : 1 h 35 min
Bit rate : 54 b/s
Count of elements : 1440
Stream size : 38.3 KiB (0%)
Language : Japanese
Default : No
Forced : No

Text #15
ID : 17
Format : UTF-8
Codec ID : S_TEXT/UTF8
Codec ID/Info : UTF-8 Plain Text
Duration : 1 h 35 min
Bit rate : 68 b/s
Count of elements : 1445
Stream size : 48.0 KiB (0%)
Language : Korean
Default : No
Forced : No

Text #16
ID : 18
Format : UTF-8
Codec ID : S_TEXT/UTF8
Codec ID/Info : UTF-8 Plain Text
Duration : 1 h 31 min
Bit rate : 56 b/s
Count of elements : 1325
Stream size : 38.0 KiB (0%)
Language : Norwegian Bokmal
Default : No
Forced : No

Text #17
ID : 19
Format : UTF-8
Codec ID : S_TEXT/UTF8
Codec ID/Info : UTF-8 Plain Text
Duration : 1 h 31 min
Bit rate : 61 b/s
Count of elements : 1255
Stream size : 41.4 KiB (0%)
Language : Dutch
Default : No
Forced : No

Text #18
ID : 20
Format : UTF-8
Codec ID : S_TEXT/UTF8
Codec ID/Info : UTF-8 Plain Text
Duration : 1 h 31 min
Bit rate : 57 b/s
Count of elements : 1341
Stream size : 38.4 KiB (0%)
Language : Polish
Default : No
Forced : No

Text #19
ID : 21
Format : UTF-8
Codec ID : S_TEXT/UTF8
Codec ID/Info : UTF-8 Plain Text
Duration : 1 h 31 min
Bit rate : 70 b/s
Count of elements : 1398
Stream size : 46.9 KiB (0%)
Language : Portuguese
Default : No
Forced : No

Text #20
ID : 22
Format : UTF-8
Codec ID : S_TEXT/UTF8
Codec ID/Info : UTF-8 Plain Text
Duration : 1 h 31 min
Bit rate : 65 b/s
Count of elements : 1419
Stream size : 44.1 KiB (0%)
Title : Brazilian
Language : Portuguese
Default : No
Forced : No

Text #21
ID : 23
Format : UTF-8
Codec ID : S_TEXT/UTF8
Codec ID/Info : UTF-8 Plain Text
Duration : 1 h 31 min
Bit rate : 71 b/s
Count of elements : 1441
Stream size : 47.9 KiB (0%)
Language : Romanian
Default : No
Forced : No

Text #22
ID : 24
Format : UTF-8
Codec ID : S_TEXT/UTF8
Codec ID/Info : UTF-8 Plain Text
Duration : 1 h 31 min
Bit rate : 94 b/s
Count of elements : 1440
Stream size : 63.2 KiB (0%)
Language : Russian
Default : No
Forced : No

Text #23
ID : 25
Format : UTF-8
Codec ID : S_TEXT/UTF8
Codec ID/Info : UTF-8 Plain Text
Duration : 1 h 31 min
Bit rate : 61 b/s
Count of elements : 1312
Stream size : 41.5 KiB (0%)
Language : Swedish
Default : No
Forced : No

Text #24
ID : 26
Format : UTF-8
Codec ID : S_TEXT/UTF8
Codec ID/Info : UTF-8 Plain Text
Duration : 1 h 31 min
Bit rate : 141 b/s
Count of elements : 1449
Stream size : 94.7 KiB (0%)
Language : Thai
Default : No
Forced : No

Text #25
ID : 27
Format : UTF-8
Codec ID : S_TEXT/UTF8
Codec ID/Info : UTF-8 Plain Text
Duration : 1 h 31 min
Bit rate : 68 b/s
Count of elements : 1430
Stream size : 46.2 KiB (0%)
Language : Turkish
Default : No
Forced : No

Text #26
ID : 28
Format : UTF-8
Codec ID : S_TEXT/UTF8
Codec ID/Info : UTF-8 Plain Text
Duration : 1 h 31 min
Bit rate : 91 b/s
Count of elements : 1426
Stream size : 61.4 KiB (0%)
Language : Vietnamese
Default : No
Forced : No

Text #27
ID : 29
Format : UTF-8
Codec ID : S_TEXT/UTF8
Codec ID/Info : UTF-8 Plain Text
Duration : 1 h 31 min
Bit rate : 72 b/s
Count of elements : 1446
Stream size : 48.6 KiB (0%)
Title : Simplified
Language : Chinese
Default : No
Forced : No

Text #28
ID : 30
Format : UTF-8
Codec ID : S_TEXT/UTF8
Codec ID/Info : UTF-8 Plain Text
Duration : 1 h 31 min
Bit rate : 68 b/s
Count of elements : 1447
Stream size : 45.8 KiB (0%)
Title : Traditional
Language : Chinese
Default : No
Forced : No




回复下载:





游客,如果您要查看本帖隐藏内容请回复,您还可以免扣高清币免回复下载:https://www.85lou.com/plugin.php?id=wyfaka_url:url


回复

使用道具 举报

superstar

高清币
3842
金钱
10633
鲜花
0
在线时间
1388 小时
最后登录
2019-9-18
发表于 2019-9-10 08:12:08 | 显示全部楼层
谢谢楼主分享!
回复 支持 反对

使用道具 举报

superstar

高清币
3842
金钱
10633
鲜花
0
在线时间
1388 小时
最后登录
2019-9-18
发表于 2019-9-10 08:12:24 | 显示全部楼层

其实我一直觉得楼主的品味不好!呵呵!中国高清论坛太棒了!
回复 支持 反对

使用道具 举报

影坛巨星

高清币
2122
金钱
7757
鲜花
0
在线时间
2402 小时
最后登录
2019-9-18
发表于 2019-9-10 08:13:34 | 显示全部楼层
楼主发贴辛苦了,谢谢楼主分享!我觉得中国高清论坛是注册对了!
回复 支持 反对

使用道具 举报

金鸡奖主角

高清币
457
金钱
5488
鲜花
0
在线时间
1315 小时
最后登录
2019-9-18
发表于 2019-9-10 08:16:17 | 显示全部楼层
楼主发贴辛苦了,谢谢楼主分享!我觉得中国高清论坛是注册对了!

回复 支持 反对

使用道具 举报

永恒神话

高清币
3588
金钱
21832
鲜花
0
在线时间
1073 小时
最后登录
2019-9-18
发表于 2019-9-10 08:16:58 | 显示全部楼层
谢谢楼主分享
回复 支持 反对

使用道具 举报

永恒神话

高清币
39909
金钱
79239
鲜花
0
在线时间
6810 小时
最后登录
2019-9-18
发表于 2019-9-10 08:25:44 | 显示全部楼层
楼主发贴辛苦了,谢谢楼主分享!我觉得中国高清论坛是注册对了!
回复 支持 反对

使用道具 举报

金鸡奖主角

高清币
1501
金钱
2558
鲜花
0
在线时间
387 小时
最后登录
2019-9-18
发表于 2019-9-10 08:30:05 | 显示全部楼层

这个帖子不回对不起自己!我想我是一天也不能离开中国高清论坛
回复 支持 反对

使用道具 举报

superstar

高清币
4157
金钱
10088
鲜花
0
在线时间
1055 小时
最后登录
2019-9-18
发表于 2019-9-10 08:38:34 | 显示全部楼层
楼主发贴辛苦了,谢谢楼主分享!我觉得中国高清论坛是注册对了!
回复 支持 反对

使用道具 举报

懒得打字嘛,点击右侧快捷回复 【右侧内容,后台自定义】
您需要登录后才可以回帖 登录 | 立即注册

本版积分规则

QQ|手机版|小黑屋|中国高清论坛 ( 黔ICP备16007815号-1 )

GMT+8, 2019-9-18 23:51 , Processed in 0.057276 second(s), 26 queries .

Powered by Discuz! X3.4

© 2001-2017 Comsenz Inc.

快速回复 返回顶部 返回列表