请选择 进入手机版 | 继续访问电脑版

中国高清论坛

 找回密码
 立即注册
搜索
查看: 1987|回复: 438

[动作片] 金蝉脱壳3:恶魔车站 E.P.T.E.2019.Extended.Cut.BDRip.1080p.seleZen 9.22 GiB

  [复制链接]

超级版主

高清币
17054
金钱
39553
鲜花
0
在线时间
12126 小时
最后登录
2019-9-18
发表于 2019-9-10 10:34:05 | 显示全部楼层 |阅读模式


◎译  名 金蝉脱壳3:恶魔车站/金蝉脱壳3
◎片  名 Escape Plan: The Extractors/ Escape Plan 3: Devil's Station
◎年  代 2018
◎国  家 美国
◎语  言 英语
◎类  别 动作
◎IMDb评分 4.7/10 from 428 users
◎IMDB链接 https://www.imdb.com/title/tt6772804/
◎片  长 1 h 27 min
◎导  演 约翰·赫兹菲尔德 John Herzfeld
◎主  演 西尔维斯特·史泰龙 Sylvester Stallone
      50分 50 Cent
      杰米·金 Jaime King
      张晋 Max Zhang
      戴文·萨瓦 Devon Sawa
      岑勇康 Harry Shum Jr.
      王盛德 Russell Wong
      


◎简  介

  电影讲述香港科技大亨的女儿失踪,当史泰龙饰演的Breslin的团队深挖此案,发现罪犯是自己一个老对手的疯狂的儿子,他还绑架了Breslin的爱人,并把她关在名为“恶魔车站”的巨大监狱里。
  1. General
  2. Unique ID : 318963016697475655958902102192323014833 (0xEFF60AE1580B81E7F06F889A7B1BB0B1)
  3. Complete name : D:Video111Escape.Plan.The.Extractors.2019.Extended.Cut.BDRip.1080p.seleZen.mkv
  4. Format : Matroska
  5. Format version : Version 4
  6. File size : 9.22 GiB
  7. Duration : 1 h 37 min
  8. Overall bit rate : 13.6 Mb/s
  9. Movie name : Escape Plan The Extractors 2019 Extended Cut from селезень
  10. Encoded date : UTC 2019-09-10 01:26:52
  11. Writing application : mkvmerge v22.0.0 ('At The End Of The World') 64-bit
  12. Writing library : libebml v1.3.5 + libmatroska v1.4.8

  13. Video
  14. ID : 1
  15. Format : AVC
  16. Format/Info : Advanced Video Codec
  17. Format profile : High@L4.1
  18. Format settings : CABAC / 5 Ref Frames
  19. Format settings, CABAC : Yes
  20. Format settings, Reference : 5 frames
  21. Codec ID : V_MPEG4/ISO/AVC
  22. Duration : 1 h 37 min
  23. Bit rate : 12.5 Mb/s
  24. Width : 1 920 pixels
  25. Height : 800 pixels
  26. Display aspect ratio : 2.40:1
  27. Frame rate mode : Constant
  28. Frame rate : 23.976 (24000/1001) FPS
  29. Color space : YUV
  30. Chroma subsampling : 4:2:0
  31. Bit depth : 8 bits
  32. Scan type : Progressive
  33. Bits/(Pixel*Frame) : 0.341
  34. Stream size : 8.52 GiB (92%)
  35. Title : Encoded by seleZen
  36. Writing library : x264 core 148 r2705kMod 3f5ed56
  37. Encoding settings : cabac=1 / ref=5 / deblock=1:-2:-2 / analyse=0x3:0x113 / me=umh / subme=11 / psy=1 / fade_compensate=0.00 / psy_rd=1.00:0.00 / mixed_ref=1 / me_range=32 / chroma_me=1 / trellis=2 / 8x8dct=1 / cqm=0 / deadzone=21,11 / fast_pskip=0 / chroma_qp_offset=-2 / threads=24 / lookahead_threads=6 / sliced_threads=0 / nr=0 / decimate=0 / interlaced=0 / bluray_compat=0 / constrained_intra=0 / fgo=0 / bframes=10 / b_pyramid=2 / b_adapt=2 / b_bias=0 / direct=3 / weightb=1 / open_gop=0 / weightp=2 / keyint=240 / keyint_min=23 / scenecut=40 / intra_refresh=0 / rc_lookahead=50 / rc=2pass / mbtree=0 / bitrate=12549 / ratetol=1.0 / qcomp=0.60 / qpmin=0 / qpmax=51 / qpstep=4 / cplxblur=20.0 / qblur=0.5 / vbv_maxrate=50000 / vbv_bufsize=62500 / nal_hrd=none / filler=0 / ip_ratio=1.40 / pb_ratio=1.30 / aq=3:0.80
  38. Language : French
  39. Default : Yes
  40. Forced : No

  41. Audio #1
  42. ID : 2
  43. Format : AC-3
  44. Format/Info : Audio Coding 3
  45. Commercial name : Dolby Digital
  46. Codec ID : A_AC3
  47. Duration : 1 h 37 min
  48. Bit rate mode : Constant
  49. Bit rate : 384 kb/s
  50. Channel(s) : 6 channels
  51. Channel layout : L R C LFE Ls Rs
  52. Sampling rate : 48.0 kHz
  53. Frame rate : 31.250 FPS (1536 SPF)
  54. Bit depth : 16 bits
  55. Compression mode : Lossy
  56. Stream size : 267 MiB (3%)
  57. Title : iTunes
  58. Language : Russian
  59. Service kind : Complete Main
  60. Default : Yes
  61. Forced : Yes

  62. Audio #2
  63. ID : 3
  64. Format : AC-3
  65. Format/Info : Audio Coding 3
  66. Commercial name : Dolby Digital
  67. Codec ID : A_AC3
  68. Duration : 1 h 37 min
  69. Bit rate mode : Constant
  70. Bit rate : 640 kb/s
  71. Channel(s) : 6 channels
  72. Channel layout : L R C LFE Ls Rs
  73. Sampling rate : 48.0 kHz
  74. Frame rate : 31.250 FPS (1536 SPF)
  75. Bit depth : 16 bits
  76. Compression mode : Lossy
  77. Stream size : 446 MiB (5%)
  78. Title : Original
  79. Language : English
  80. Service kind : Complete Main
  81. Default : No
  82. Forced : No

  83. Menu
  84. 00:00:00.000 : fr:00:00:00.000
  85. 00:09:22.979 : fr:00:09:22.979
  86. 00:17:31.133 : fr:00:17:31.133
  87. 00:24:01.607 : fr:00:24:01.607
  88. 00:30:59.274 : fr:00:30:59.274
  89. 00:37:19.737 : fr:00:37:19.737
  90. 00:43:40.034 : fr:00:43:40.034
  91. 00:50:12.426 : fr:00:50:12.426
  92. 00:58:11.405 : fr:00:58:11.405
  93. 01:05:44.190 : fr:01:05:44.190
  94. 01:16:39.220 : fr:01:16:39.220
  95. 01:27:37.294 : fr:01:27:37.294
复制代码

游客,如果您要查看本帖隐藏内容请回复,您还可以免扣高清币免回复下载:https://www.85lou.com/plugin.php?id=wyfaka_url:url

回复

使用道具 举报

知名艺人

高清币
0
金钱
256
鲜花
0
在线时间
46 小时
最后登录
2019-9-18
发表于 2019-9-10 20:07:53 手机频道 | 显示全部楼层
这个感觉还不错,顶一个。
回复 支持 1 反对 0

使用道具 举报

天王巨星

高清币
85
金钱
3325
鲜花
0
在线时间
730 小时
最后登录
2019-9-18
发表于 2019-9-10 20:37:04 | 显示全部楼层

楼主太厉害了!楼主,电影应该很好看我觉得中国高清论坛真是个好地方!
回复 支持 1 反对 0

使用道具 举报

永恒神话

高清币
6373
金钱
11705
鲜花
0
在线时间
1571 小时
最后登录
2019-9-18
发表于 2019-9-10 20:14:13 | 显示全部楼层

既然你诚信诚意的推荐了,那我就勉为其难的看看吧!中国高清论坛不走平凡路。
回复 支持 1 反对 0

使用道具 举报

禁止访问

高清币
13
金钱
15
鲜花
0
在线时间
0 小时
最后登录
2019-9-10
发表于 2019-9-10 20:24:38 | 显示全部楼层
提示: 作者被禁止或删除 内容自动屏蔽
回复 支持 1 反对 0

使用道具 举报

永恒神话

高清币
11006
金钱
16800
鲜花
0
在线时间
1126 小时
最后登录
2019-9-18
发表于 2019-9-10 10:37:13 | 显示全部楼层
楼主发贴辛苦了,谢谢楼主分享!我觉得中国高清论坛是注册对了!
回复 支持 反对

使用道具 举报

人气偶像

高清币
794
金钱
612
鲜花
0
在线时间
67 小时
最后登录
2019-9-18
发表于 2019-9-10 10:38:44 | 显示全部楼层
楼主发贴辛苦了,谢谢楼主分享!我觉得中国高清论坛是注册对了!
回复 支持 反对

使用道具 举报

金鸡奖主角

高清币
35
金钱
3729
鲜花
0
在线时间
883 小时
最后登录
2019-9-14
发表于 2019-9-10 10:39:42 | 显示全部楼层

这个帖子不回对不起自己!我想我是一天也不能离开中国高清论坛
回复 支持 反对

使用道具 举报

金鸡奖主角

高清币
26
金钱
4483
鲜花
0
在线时间
435 小时
最后登录
2019-9-18
发表于 2019-9-10 10:41:39 | 显示全部楼层
thank you very much
回复 支持 反对

使用道具 举报

永恒神话

高清币
11265
金钱
13995
鲜花
0
在线时间
682 小时
最后登录
2019-9-18
发表于 2019-9-10 10:44:35 | 显示全部楼层

我看不错噢 谢谢楼主!中国高清论坛越来越好!
回复 支持 反对

使用道具 举报

天王巨星

高清币
49
金钱
2130
鲜花
0
在线时间
247 小时
最后登录
2019-9-18
发表于 2019-9-10 10:46:59 | 显示全部楼层
感谢楼主的无私分享!
回复 支持 反对

使用道具 举报

影坛巨星

高清币
1250
金钱
9414
鲜花
0
在线时间
1228 小时
最后登录
2019-9-18
发表于 2019-9-10 10:47:22 | 显示全部楼层

楼主太厉害了!楼主,电影应该很好看我觉得中国高清论坛真是个好地方!
回复 支持 反对

使用道具 举报

知名艺人

高清币
8
金钱
177
鲜花
0
在线时间
44 小时
最后登录
2019-9-18
发表于 2019-9-10 10:47:48 | 显示全部楼层

楼主太厉害了!楼主,电影应该很好看我觉得中国高清论坛真是个好地方!
回复 支持 反对

使用道具 举报

人气偶像

高清币
277
金钱
307
鲜花
0
在线时间
0 小时
最后登录
2019-9-10
发表于 2019-9-10 10:48:04 | 显示全部楼层
确实不用下载视频 而且还给免费使用 良心软件
回复 支持 反对

使用道具 举报

懒得打字嘛,点击右侧快捷回复 【右侧内容,后台自定义】
您需要登录后才可以回帖 登录 | 立即注册

本版积分规则

QQ|手机版|小黑屋|中国高清论坛 ( 黔ICP备16007815号-1 )

GMT+8, 2019-9-18 23:23 , Processed in 0.431674 second(s), 27 queries .

Powered by Discuz! X3.4

© 2001-2017 Comsenz Inc.

快速回复 返回顶部 返回列表