请选择 进入手机版 | 继续访问电脑版

中国高清论坛

 找回密码
 立即注册
搜索
查看: 731|回复: 166

[恐怖片] 鬼娃回魂/恰吉(台) Childs.Play.2019.1080p.AMZN.WEBRip.DDP5.1.x264-NTG 4.51 GiB

  [复制链接]

超级版主

高清币
17054
金钱
39553
鲜花
0
在线时间
12126 小时
最后登录
2019-9-18
发表于 2019-9-10 21:44:45 | 显示全部楼层 |阅读模式





◎译  名 鬼娃回魂/新鬼娃回魂/鬼娃还魂/娃鬼回魂:魅來世界(港)/恰吉(台)
◎片  名 Child's Play
◎年  代 2019
◎国  家 美国
◎类  别 恐怖
◎语  言 英语
◎IMDb评分 6.2/10 from 13307 users
◎IMDB链接 http://www.imdb.com/title/tt8663516
◎片  长 1 h 29 min
◎导  演 拉尔斯·克列夫伯格 Lars Klevberg
◎主  演 奥布瑞·普拉扎 Aubrey Plaza
      马克·哈米尔 Mark Hamill
      加布里埃尔·贝特曼 Gabriel Bateman
      布莱恩·泰里·亨利 Brian Tyree Henry
      提姆·麦锡森 Tim Matheson
      大卫·刘易斯 David Lewis
      碧翠斯·凯索斯 Beatrice Kitsos
      汉娜·德鲁 Hannah Drew
      特伦特·雷德科普 Trent Redekop
      安珀·泰勒 Amber Taylor
      克莉丝汀·约克 Kristin York
      泰·孔西利奥 Ty Consiglio
      卡尔利斯·布克 Carlease Burke
      本·安德鲁斯科-道恩 Ben Andrusco-Daon
      艾迪·弗莱克 Eddie Flake



◎简  介

  在新版中,奥布瑞·普拉扎饰演的母亲送给自己儿子一个公仔作为生日礼物,却对公仔凶险的本性毫不知情。

  1. Video
  2. ID : 1
  3. Format : AVC
  4. Format/Info : Advanced Video Codec
  5. Format profile : High@L4
  6. Format settings : CABAC / 4 Ref Frames
  7. Format settings, CABAC : Yes
  8. Format settings, Reference frames : 4 frames
  9. Codec ID : V_MPEG4/ISO/AVC
  10. Duration : 1 h 29 min
  11. Bit rate mode : Constant
  12. Bit rate : 6 536 kb/s
  13. Nominal bit rate : 10 000 kb/s
  14. Width : 1 920 pixels
  15. Height : 816 pixels
  16. Display aspect ratio : 2.35:1
  17. Frame rate mode : Constant
  18. Frame rate : 23.976 (24000/1001) FPS
  19. Color space : YUV
  20. Chroma subsampling : 4:2:0
  21. Bit depth : 8 bits
  22. Scan type : Progressive
  23. Bits/(Pixel*Frame) : 0.174
  24. Stream size : 4.11 GiB (91%)
  25. Default : Yes
  26. Forced : No
  27. Color range : Limited
  28. Color primaries : BT.709
  29. Transfer characteristics : BT.709
  30. Matrix coefficients : BT.709

  31. Audio
  32. ID : 2
  33. Format : E-AC-3
  34. Format/Info : Enhanced AC-3
  35. Commercial name : Dolby Digital Plus
  36. Codec ID : A_EAC3
  37. Duration : 1 h 29 min
  38. Bit rate mode : Constant
  39. Bit rate : 640 kb/s
  40. Channel(s) : 6 channels
  41. Channel layout : L R C LFE Ls Rs
  42. Sampling rate : 48.0 kHz
  43. Frame rate : 31.250 FPS (1536 SPF)
  44. Compression mode : Lossy
  45. Stream size : 412 MiB (9%)
  46. Language : English
  47. Service kind : Complete Main
  48. Default : Yes
  49. Forced : No

  50. Text #1
  51. ID : 3
  52. Format : UTF-8
  53. Codec ID : S_TEXT/UTF8
  54. Codec ID/Info : UTF-8 Plain Text
  55. Duration : 1 h 23 min
  56. Bit rate : 53 b/s
  57. Count of elements : 1225
  58. Stream size : 32.3 KiB (0%)
  59. Language : English
  60. Default : No
  61. Forced : No

  62. Text #2
  63. ID : 4
  64. Format : UTF-8
  65. Codec ID : S_TEXT/UTF8
  66. Codec ID/Info : UTF-8 Plain Text
  67. Duration : 1 h 29 min
  68. Bit rate : 59 b/s
  69. Count of elements : 1551
  70. Stream size : 39.1 KiB (0%)
  71. Title : SDH
  72. Language : English
  73. Default : No
  74. Forced : No
复制代码








游客,如果您要查看本帖隐藏内容请回复,您还可以免扣高清币免回复下载:https://www.85lou.com/plugin.php?id=wyfaka_url:url

回复

使用道具 举报

禁止访问

高清币
13
金钱
15
鲜花
0
在线时间
0 小时
最后登录
2019-9-10
发表于 2019-9-10 22:06:52 | 显示全部楼层
提示: 作者被禁止或删除 内容自动屏蔽
回复 支持 0 反对 1

使用道具 举报

永恒神话

高清币
39909
金钱
79239
鲜花
0
在线时间
6810 小时
最后登录
2019-9-18
发表于 2019-9-10 21:52:25 | 显示全部楼层

这个帖子不回对不起自己!我想我是一天也不能离开中国高清论坛
回复 支持 反对

使用道具 举报

人气偶像

高清币
11
金钱
651
鲜花
0
在线时间
100 小时
最后登录
2019-9-17
发表于 2019-9-10 22:00:30 | 显示全部楼层
很牛的系列恐怖片,可以一看
回复 支持 反对

使用道具 举报

天王巨星

高清币
851
金钱
1592
鲜花
0
在线时间
258 小时
最后登录
2019-9-19
发表于 2019-9-10 22:02:48 | 显示全部楼层
楼主发贴辛苦了,谢谢楼主分享!我觉得中国高清论坛是注册对了!
回复 支持 反对

使用道具 举报

天王巨星

高清币
177
金钱
2590
鲜花
0
在线时间
1210 小时
最后登录
2019-9-18
发表于 2019-9-10 22:06:52 | 显示全部楼层

这个帖子不回对不起自己!我想我是一天也不能离开中国高清论坛
回复 支持 反对

使用道具 举报

人气偶像

高清币
0
金钱
1379
鲜花
0
在线时间
203 小时
最后登录
2019-9-16
发表于 2019-9-10 22:08:27 | 显示全部楼层
很牛的系列恐怖片,可以一看
回复 支持 反对

使用道具 举报

superstar

高清币
2158
金钱
11774
鲜花
0
在线时间
2735 小时
最后登录
2019-9-18
发表于 2019-9-10 22:10:01 | 显示全部楼层
多謝樓主的分享。
回复 支持 反对

使用道具 举报

影坛巨星

高清币
4102
金钱
5694
鲜花
0
在线时间
858 小时
最后登录
2019-9-18
发表于 2019-9-10 22:10:48 | 显示全部楼层

我看不错噢 谢谢楼主!中国高清论坛越来越好!
回复 支持 反对

使用道具 举报

知名艺人

高清币
0
金钱
170
鲜花
0
在线时间
41 小时
最后登录
2019-9-14
发表于 2019-9-10 22:10:59 | 显示全部楼层
謝謝大大的分享
回复 支持 反对

使用道具 举报

懒得打字嘛,点击右侧快捷回复 【右侧内容,后台自定义】
您需要登录后才可以回帖 登录 | 立即注册

本版积分规则

QQ|手机版|小黑屋|中国高清论坛 ( 黔ICP备16007815号-1 )

GMT+8, 2019-9-19 00:01 , Processed in 0.067540 second(s), 27 queries .

Powered by Discuz! X3.4

© 2001-2017 Comsenz Inc.

快速回复 返回顶部 返回列表