请选择 进入手机版 | 继续访问电脑版

中国高清论坛

 找回密码
 立即注册
亚博
搜索
查看: 1812|回复: 446

[惊悚片] 高草丛中 [繁简中文] In.the.Tall.Grass.2019.1080p.NF.WEBRip.DDP5.1.Atmos.x264-NTG

  [复制链接]

超级版主

高清币
17321
金钱
40139
鲜花
0
在线时间
12257 小时
最后登录
2019-10-14
发表于 2019-10-4 21:37:45 | 显示全部楼层 |阅读模式


◎译  名 高草丛中/草丛失魂/高草魅声
◎片  名 In the Tall Grass
◎年  代 2019
◎产  地 加拿大
◎类  别 剧情/惊悚/恐怖
◎IMDb评分 6.6/10 from 157 users
◎IMDB链接 https://www.imdb.com/title/tt4687108/
◎片  长 1 h 41 min
◎导  演 文森佐·纳塔利 Vincenzo Natali
◎主  演 帕特里克·威尔森 Patrick Wilson
       哈里森·吉尔伯特森 Harrison Gilbertson
       蕾切尔·威尔森 Rachel Wilson




◎简  介

  本片改编自史蒂芬·金与乔·希尔的小说。故事叙述贝齐和卡尔姐弟俩听到高草田里传来小男孩的哭声。他们不顾危险地去救小男孩,不料自己却陷入邪恶力量所设下的圈套,姐弟二人也因此在高草田中失散。他们完全无法与外界联系,也无法从高草田的步步进逼中逃脱,他们这才恍然大悟,原来比迷路更可怕的事,是让自己的行踪曝光。本片由文森佐·纳塔利编剧及执导。
  1. Video
  2. ID : 1
  3. Format : AVC
  4. Format/Info : Advanced Video Codec
  5. Format profile : Main@L4
  6. Format settings : CABAC / 3 Ref Frames
  7. Format settings, CABAC : Yes
  8. Format settings, Reference frames : 3 frames
  9. Codec ID : V_MPEG4/ISO/AVC
  10. Duration : 1 h 41 min
  11. Bit rate mode : Variable
  12. Bit rate : 7 500 kb/s
  13. Maximum bit rate : 11.2 Mb/s
  14. Width : 1 920 pixels
  15. Height : 1 080 pixels
  16. Display aspect ratio : 16:9
  17. Frame rate mode : Constant
  18. Frame rate : 24.000 FPS
  19. Color space : YUV
  20. Chroma subsampling : 4:2:0
  21. Bit depth : 8 bits
  22. Scan type : Progressive
  23. Bits/(Pixel*Frame) : 0.151
  24. Stream size : 5.30 GiB (91%)
  25. Writing library : x264 core 148 r2715 7e75228
  26. Encoding settings : cabac=1 / ref=3 / deblock=1:0:0 / analyse=0x1:0x111 / me=umh / subme=10 / psy=1 / psy_rd=1.00:0.00 / mixed_ref=1 / me_range=24 / chroma_me=1 / trellis=2 / 8x8dct=0 / cqm=0 / deadzone=21,11 / fast_pskip=1 / chroma_qp_offset=-2 / threads=8 / lookahead_threads=1 / sliced_threads=0 / nr=0 / decimate=1 / interlaced=0 / bluray_compat=0 / stitchable=1 / constrained_intra=0 / bframes=2 / b_pyramid=0 / b_adapt=2 / b_bias=0 / direct=3 / weightb=1 / open_gop=0 / weightp=2 / keyint=250 / keyint_min=24 / scenecut=0 / intra_refresh=0 / rc_lookahead=48 / rc=2pass / mbtree=1 / bitrate=7500 / ratetol=1.0 / qcomp=0.50 / qpmin=6 / qpmax=51 / qpstep=4 / cplxblur=20.0 / qblur=0.5 / vbv_maxrate=11250 / vbv_bufsize=15000 / nal_hrd=vbr / filler=0 / ip_ratio=1.40 / aq=1:1.00
  27. Default : Yes
  28. Forced : No

  29. Audio
  30. ID : 2
  31. Format : E-AC-3 JOC
  32. Format/Info : Enhanced AC-3 with Joint Object Coding
  33. Commercial name : Dolby Digital Plus with Dolby Atmos
  34. Codec ID : A_EAC3
  35. Duration : 1 h 41 min
  36. Bit rate mode : Constant
  37. Bit rate : 768 kb/s
  38. Channel(s) : 6 channels
  39. Channel layout : L R C LFE Ls Rs
  40. Sampling rate : 48.0 kHz
  41. Frame rate : 31.250 FPS (1536 SPF)
  42. Compression mode : Lossy
  43. Stream size : 560 MiB (9%)
  44. Title : English
  45. Language : English
  46. Service kind : Complete Main
  47. Default : Yes
  48. Forced : No
  49. Complexity index : 16
  50. Number of dynamic objects : 15
  51. Bed channel count : 1 channel
  52. Bed channel configuration : LFE

  53. Text #1
  54. ID : 3
  55. Format : UTF-8
  56. Codec ID : S_TEXT/UTF8
  57. Codec ID/Info : UTF-8 Plain Text
  58. Duration : 1 h 37 min
  59. Bit rate : 42 b/s
  60. Count of elements : 1258
  61. Stream size : 30.5 KiB (0%)
  62. Language : English
  63. Default : No
  64. Forced : No

  65. Text #2
  66. ID : 4
  67. Format : UTF-8
  68. Codec ID : S_TEXT/UTF8
  69. Codec ID/Info : UTF-8 Plain Text
  70. Duration : 1 h 38 min
  71. Bit rate : 49 b/s
  72. Count of elements : 1501
  73. Stream size : 35.9 KiB (0%)
  74. Title : SDH
  75. Language : English
  76. Default : No
  77. Forced : No

  78. Text #3
  79. ID : 5
  80. Format : UTF-8
  81. Codec ID : S_TEXT/UTF8
  82. Codec ID/Info : UTF-8 Plain Text
  83. Duration : 1 h 39 min
  84. Bit rate : 63 b/s
  85. Count of elements : 1177
  86. Stream size : 45.7 KiB (0%)
  87. Language : Arabic
  88. Default : No
  89. Forced : No

  90. Text #4
  91. ID : 6
  92. Format : UTF-8
  93. Codec ID : S_TEXT/UTF8
  94. Codec ID/Info : UTF-8 Plain Text
  95. Duration : 1 h 39 min
  96. Bit rate : 33 b/s
  97. Count of elements : 1133
  98. Stream size : 23.9 KiB (0%)
  99. Language : Czech
  100. Default : No
  101. Forced : No

  102. Text #5
  103. ID : 7
  104. Format : UTF-8
  105. Codec ID : S_TEXT/UTF8
  106. Codec ID/Info : UTF-8 Plain Text
  107. Duration : 1 h 39 min
  108. Bit rate : 38 b/s
  109. Count of elements : 1178
  110. Stream size : 27.8 KiB (0%)
  111. Language : Danish
  112. Default : No
  113. Forced : No

  114. Text #6
  115. ID : 8
  116. Format : UTF-8
  117. Codec ID : S_TEXT/UTF8
  118. Codec ID/Info : UTF-8 Plain Text
  119. Duration : 1 h 39 min
  120. Bit rate : 34 b/s
  121. Count of elements : 1144
  122. Stream size : 25.2 KiB (0%)
  123. Language : German
  124. Default : No
  125. Forced : No

  126. Text #7
  127. ID : 9
  128. Format : UTF-8
  129. Codec ID : S_TEXT/UTF8
  130. Codec ID/Info : UTF-8 Plain Text
  131. Duration : 1 h 39 min
  132. Bit rate : 58 b/s
  133. Count of elements : 1154
  134. Stream size : 42.7 KiB (0%)
  135. Language : Greek
  136. Default : No
  137. Forced : No

  138. Text #8
  139. ID : 10
  140. Format : UTF-8
  141. Codec ID : S_TEXT/UTF8
  142. Codec ID/Info : UTF-8 Plain Text
  143. Duration : 1 h 33 min
  144. Bit rate : 38 b/s
  145. Count of elements : 1100
  146. Stream size : 26.2 KiB (0%)
  147. Language : Spanish
  148. Default : No
  149. Forced : No

  150. Text #9
  151. ID : 11
  152. Format : UTF-8
  153. Codec ID : S_TEXT/UTF8
  154. Codec ID/Info : UTF-8 Plain Text
  155. Duration : 1 h 39 min
  156. Bit rate : 33 b/s
  157. Count of elements : 1142
  158. Stream size : 24.0 KiB (0%)
  159. Title : European
  160. Language : Spanish
  161. Default : No
  162. Forced : No

  163. Text #10
  164. ID : 12
  165. Format : UTF-8
  166. Codec ID : S_TEXT/UTF8
  167. Codec ID/Info : UTF-8 Plain Text
  168. Duration : 1 h 39 min
  169. Bit rate : 34 b/s
  170. Count of elements : 1039
  171. Stream size : 25.1 KiB (0%)
  172. Language : Finnish
  173. Default : No
  174. Forced : No

  175. Text #11
  176. ID : 13
  177. Format : UTF-8
  178. Codec ID : S_TEXT/UTF8
  179. Codec ID/Info : UTF-8 Plain Text
  180. Duration : 1 h 39 min
  181. Bit rate : 34 b/s
  182. Count of elements : 1094
  183. Stream size : 24.9 KiB (0%)
  184. Language : French
  185. Default : No
  186. Forced : No

  187. Text #12
  188. ID : 14
  189. Format : UTF-8
  190. Codec ID : S_TEXT/UTF8
  191. Codec ID/Info : UTF-8 Plain Text
  192. Duration : 1 h 39 min
  193. Bit rate : 56 b/s
  194. Count of elements : 1178
  195. Stream size : 41.0 KiB (0%)
  196. Language : Hebrew
  197. Default : No
  198. Forced : No

  199. Text #13
  200. ID : 15
  201. Format : UTF-8
  202. Codec ID : S_TEXT/UTF8
  203. Codec ID/Info : UTF-8 Plain Text
  204. Duration : 1 h 39 min
  205. Bit rate : 100 b/s
  206. Count of elements : 1178
  207. Stream size : 72.8 KiB (0%)
  208. Language : Hindi
  209. Default : No
  210. Forced : No

  211. Text #14
  212. ID : 16
  213. Format : UTF-8
  214. Codec ID : S_TEXT/UTF8
  215. Codec ID/Info : UTF-8 Plain Text
  216. Duration : 1 h 39 min
  217. Bit rate : 37 b/s
  218. Count of elements : 1178
  219. Stream size : 27.2 KiB (0%)
  220. Language : Hungarian
  221. Default : No
  222. Forced : No

  223. Text #15
  224. ID : 17
  225. Format : UTF-8
  226. Codec ID : S_TEXT/UTF8
  227. Codec ID/Info : UTF-8 Plain Text
  228. Duration : 1 h 39 min
  229. Bit rate : 34 b/s
  230. Count of elements : 1157
  231. Stream size : 25.2 KiB (0%)
  232. Language : Indonesian
  233. Default : No
  234. Forced : No

  235. Text #16
  236. ID : 18
  237. Format : UTF-8
  238. Codec ID : S_TEXT/UTF8
  239. Codec ID/Info : UTF-8 Plain Text
  240. Duration : 1 h 38 min
  241. Bit rate : 33 b/s
  242. Count of elements : 1127
  243. Stream size : 24.2 KiB (0%)
  244. Language : Italian
  245. Default : No
  246. Forced : No

  247. Text #17
  248. ID : 19
  249. Format : UTF-8
  250. Codec ID : S_TEXT/UTF8
  251. Codec ID/Info : UTF-8 Plain Text
  252. Duration : 1 h 39 min
  253. Bit rate : 36 b/s
  254. Count of elements : 1132
  255. Stream size : 26.5 KiB (0%)
  256. Language : Japanese
  257. Default : No
  258. Forced : No

  259. Text #18
  260. ID : 20
  261. Format : UTF-8
  262. Codec ID : S_TEXT/UTF8
  263. Codec ID/Info : UTF-8 Plain Text
  264. Duration : 1 h 39 min
  265. Bit rate : 47 b/s
  266. Count of elements : 1164
  267. Stream size : 34.2 KiB (0%)
  268. Language : Korean
  269. Default : No
  270. Forced : No

  271. Text #19
  272. ID : 21
  273. Format : UTF-8
  274. Codec ID : S_TEXT/UTF8
  275. Codec ID/Info : UTF-8 Plain Text
  276. Duration : 1 h 39 min
  277. Bit rate : 35 b/s
  278. Count of elements : 1165
  279. Stream size : 25.8 KiB (0%)
  280. Language : Norwegian Bokmal
  281. Default : No
  282. Forced : No

  283. Text #20
  284. ID : 22
  285. Format : UTF-8
  286. Codec ID : S_TEXT/UTF8
  287. Codec ID/Info : UTF-8 Plain Text
  288. Duration : 1 h 39 min
  289. Bit rate : 31 b/s
  290. Count of elements : 886
  291. Stream size : 22.7 KiB (0%)
  292. Language : Dutch
  293. Default : No
  294. Forced : No

  295. Text #21
  296. ID : 23
  297. Format : UTF-8
  298. Codec ID : S_TEXT/UTF8
  299. Codec ID/Info : UTF-8 Plain Text
  300. Duration : 1 h 39 min
  301. Bit rate : 32 b/s
  302. Count of elements : 1125
  303. Stream size : 23.6 KiB (0%)
  304. Language : Polish
  305. Default : No
  306. Forced : No

  307. Text #22
  308. ID : 24
  309. Format : UTF-8
  310. Codec ID : S_TEXT/UTF8
  311. Codec ID/Info : UTF-8 Plain Text
  312. Duration : 1 h 39 min
  313. Bit rate : 33 b/s
  314. Count of elements : 1154
  315. Stream size : 24.0 KiB (0%)
  316. Language : Portuguese
  317. Default : No
  318. Forced : No

  319. Text #23
  320. ID : 25
  321. Format : UTF-8
  322. Codec ID : S_TEXT/UTF8
  323. Codec ID/Info : UTF-8 Plain Text
  324. Duration : 1 h 32 min
  325. Bit rate : 34 b/s
  326. Count of elements : 1137
  327. Stream size : 23.1 KiB (0%)
  328. Title : Brazilian
  329. Language : Portuguese
  330. Default : No
  331. Forced : No

  332. Text #24
  333. ID : 26
  334. Format : UTF-8
  335. Codec ID : S_TEXT/UTF8
  336. Codec ID/Info : UTF-8 Plain Text
  337. Duration : 1 h 39 min
  338. Bit rate : 38 b/s
  339. Count of elements : 1140
  340. Stream size : 27.6 KiB (0%)
  341. Language : Romanian
  342. Default : No
  343. Forced : No

  344. Text #25
  345. ID : 27
  346. Format : UTF-8
  347. Codec ID : S_TEXT/UTF8
  348. Codec ID/Info : UTF-8 Plain Text
  349. Duration : 1 h 39 min
  350. Bit rate : 55 b/s
  351. Count of elements : 929
  352. Stream size : 40.3 KiB (0%)
  353. Language : Russian
  354. Default : No
  355. Forced : No

  356. Text #26
  357. ID : 28
  358. Format : UTF-8
  359. Codec ID : S_TEXT/UTF8
  360. Codec ID/Info : UTF-8 Plain Text
  361. Duration : 1 h 39 min
  362. Bit rate : 33 b/s
  363. Count of elements : 1048
  364. Stream size : 24.4 KiB (0%)
  365. Language : Swedish
  366. Default : No
  367. Forced : No

  368. Text #27
  369. ID : 29
  370. Format : UTF-8
  371. Codec ID : S_TEXT/UTF8
  372. Codec ID/Info : UTF-8 Plain Text
  373. Duration : 1 h 39 min
  374. Bit rate : 98 b/s
  375. Count of elements : 1161
  376. Stream size : 71.7 KiB (0%)
  377. Language : Thai
  378. Default : No
  379. Forced : No

  380. Text #28
  381. ID : 30
  382. Format : UTF-8
  383. Codec ID : S_TEXT/UTF8
  384. Codec ID/Info : UTF-8 Plain Text
  385. Duration : 1 h 39 min
  386. Bit rate : 37 b/s
  387. Count of elements : 1158
  388. Stream size : 26.9 KiB (0%)
  389. Language : Turkish
  390. Default : No
  391. Forced : No

  392. Text #29
  393. ID : 31
  394. Format : UTF-8
  395. Codec ID : S_TEXT/UTF8
  396. Codec ID/Info : UTF-8 Plain Text
  397. Duration : 1 h 39 min
  398. Bit rate : 50 b/s
  399. Count of elements : 1157
  400. Stream size : 36.6 KiB (0%)
  401. Language : Vietnamese
  402. Default : No
  403. Forced : No

  404. Text #30
  405. ID : 32
  406. Format : UTF-8
  407. Codec ID : S_TEXT/UTF8
  408. Codec ID/Info : UTF-8 Plain Text
  409. Duration : 1 h 39 min
  410. Bit rate : 40 b/s
  411. Count of elements : 1161
  412. Stream size : 29.2 KiB (0%)
  413. Title : Simplified
  414. Language : Chinese
  415. Default : No
  416. Forced : No

  417. Text #31
  418. ID : 33
  419. Format : UTF-8
  420. Codec ID : S_TEXT/UTF8
  421. Codec ID/Info : UTF-8 Plain Text
  422. Duration : 1 h 39 min
  423. Bit rate : 37 b/s
  424. Count of elements : 1172
  425. Stream size : 27.3 KiB (0%)
  426. Title : Traditional
  427. Language : Chinese
  428. Default : No
  429. Forced : No
复制代码







游客,如果您要查看本帖隐藏内容请回复,您还可以免扣高清币免回复下载:https://www.85lou.com/plugin.php?id=wyfaka_url:url

回复

使用道具 举报

金鸡奖主角

高清币
25
金钱
4617
鲜花
0
在线时间
532 小时
最后登录
2019-10-13
发表于 2019-10-4 22:46:39 | 显示全部楼层
楼主发贴辛苦了,谢谢楼主分享!我觉得中国高清论坛是注册对了!
回复 支持 1 反对 0

使用道具 举报

金鸡奖主角

高清币
219
金钱
6264
鲜花
0
在线时间
784 小时
最后登录
2019-10-12
发表于 2019-10-4 22:49:34 | 显示全部楼层

这个帖子不回对不起自己!我想我是一天也不能离开中国高清论坛
回复 支持 1 反对 0

使用道具 举报

人气偶像

高清币
155
金钱
774
鲜花
0
在线时间
42 小时
最后登录
2019-10-15
发表于 2019-10-4 22:51:06 | 显示全部楼层

既然你诚信诚意的推荐了,那我就勉为其难的看看吧!中国高清论坛不走平凡路。
回复 支持 1 反对 0

使用道具 举报

跑龙套

高清币
10
金钱
12
鲜花
0
在线时间
0 小时
最后登录
2019-10-4
发表于 2019-10-4 23:16:35 | 显示全部楼层
幼 女 资 原【 www.un3.me
回复 支持 1 反对 0

使用道具 举报

金鸡奖主角

高清币
133
金钱
3629
鲜花
0
在线时间
581 小时
最后登录
2019-10-6
发表于 2019-10-4 23:15:56 | 显示全部楼层

楼主太厉害了!楼主,电影应该很好看我觉得中国高清论坛真是个好地方!
回复 支持 1 反对 0

使用道具 举报

人气偶像

高清币
4
金钱
1383
鲜花
0
在线时间
758 小时
最后登录
2019-10-14
发表于 2019-10-4 23:11:03 | 显示全部楼层
楼主发贴辛苦了,谢谢楼主分享!我觉得中国高清论坛是注册对了!
回复 支持 1 反对 0

使用道具 举报

金鸡奖主角

高清币
133
金钱
3629
鲜花
0
在线时间
581 小时
最后登录
2019-10-6
发表于 2019-10-4 23:09:24 | 显示全部楼层

楼主太厉害了!楼主,电影应该很好看我觉得中国高清论坛真是个好地方!
回复 支持 1 反对 0

使用道具 举报

人气偶像

高清币
366
金钱
862
鲜花
0
在线时间
101 小时
最后登录
2019-10-14
发表于 2019-10-4 21:42:28 | 显示全部楼层

其实我一直觉得楼主的品味不错!呵呵!中国高清论坛太棒了!
回复 支持 反对

使用道具 举报

金鸡奖主角

高清币
390
金钱
8338
鲜花
0
在线时间
3589 小时
最后登录
2019-10-14
发表于 2019-10-4 21:44:30 | 显示全部楼层
楼主发贴辛苦了,谢谢楼主分享!我觉得中国高清论坛是注册对了!
回复 支持 反对

使用道具 举报

天王巨星

高清币
477
金钱
1433
鲜花
0
在线时间
198 小时
最后登录
2019-10-14
发表于 2019-10-4 21:44:34 | 显示全部楼层
楼主发贴辛苦了,谢谢楼主分享!我觉得中国高清论坛是注册对了!
回复 支持 反对

使用道具 举报

人气偶像

高清币
0
金钱
1790
鲜花
0
在线时间
583 小时
最后登录
2019-10-13
发表于 2019-10-4 21:52:38 | 显示全部楼层
不错的电影
回复 支持 反对

使用道具 举报

人气偶像

高清币
0
金钱
1790
鲜花
0
在线时间
583 小时
最后登录
2019-10-13
发表于 2019-10-4 21:54:34 | 显示全部楼层
不错的电影
回复 支持 反对

使用道具 举报

知名艺人

高清币
31
金钱
269
鲜花
0
在线时间
61 小时
最后登录
2019-10-14
发表于 2019-10-4 21:56:23 | 显示全部楼层
谢谢楼主分享
回复 支持 反对

使用道具 举报

天王巨星

高清币
3
金钱
2276
鲜花
0
在线时间
485 小时
最后登录
2019-10-14
发表于 2019-10-4 21:57:30 | 显示全部楼层

这个帖子不回对不起自己!我想我是一天也不能离开中国高清论坛
回复 支持 反对

使用道具 举报

跑龙套

高清币
1
金钱
3
鲜花
0
在线时间
0 小时
最后登录
2019-10-4
发表于 2019-10-4 21:59:03 | 显示全部楼层
真是好资源,谢谢楼主
回复 支持 反对

使用道具 举报

天王巨星

高清币
294
金钱
2685
鲜花
0
在线时间
757 小时
最后登录
2019-10-9
发表于 2019-10-4 22:01:21 | 显示全部楼层
楼主发贴辛苦了,谢谢楼主分享!我觉得中国高清论坛是注册对了!
回复 支持 反对

使用道具 举报

懒得打字嘛,点击右侧快捷回复 【右侧内容,后台自定义】
您需要登录后才可以回帖 登录 | 立即注册

本版积分规则

QQ|手机版|小黑屋|中国高清论坛 ( 黔ICP备16007815号-1 )

GMT+8, 2019-10-15 02:46 , Processed in 0.063333 second(s), 27 queries .

Powered by Discuz! X3.4

© 2001-2017 Comsenz Inc.

快速回复 返回顶部 返回列表