请选择 进入手机版 | 继续访问电脑版

中国高清论坛

 找回密码
 立即注册
亚博
搜索
查看: 6925|回复: 1989

[惊悚片] 巨鳄风暴/噬逃险鳄/鳄魔(台)Crawl.2019.1080p.BluRay.x264.DTS-HD.MA.7.1-CHD 12.31G

  [复制链接]

高清发布组

高清币
11305
金钱
208
鲜花
0
在线时间
88 小时
最后登录
2019-10-15
发表于 2019-10-5 01:09:01 | 显示全部楼层 |阅读模式



◎译  名 巨鳄风暴/噬逃险鳄(港) / 爬行 /鳄魔(台)
◎片  名 Crawl
◎年  代 2019
◎产  地 美国
◎类  别 剧情 / 惊悚 / 灾难
◎语  言 英语
◎上映日期 2019-07-12(美国) / 2019-09-12(中国大陆)
◎IMDb评分  6.5/10 from 15541 users
◎IMDb链接  http://www.imdb.com/title/tt8364368
◎豆瓣评分 5.9/10 from 19335 users
◎豆瓣链接 https://movie.douban.com/subject/30210700/
◎片  长 87分钟
◎导  演 亚历山大·阿嘉 Alexandre Aja
◎编  剧 迈克尔·拉斯姆森 Michael Rasmussen / 肖恩·拉斯姆森 Shawn Rasmussen
◎主  演 卡雅·斯考达里奥 Kaya Scodelario
       巴里·佩珀 Barry Pepper
       罗斯·安德森 Ross Anderson
       安森·布恩 Anson Boon
       乔治·索纳 George Somner
       阿米‧梅特卡夫 Ami Metcalf
       何塞‧帕尔马 Jose Palma
       莫菲德·克拉克 Morfydd Clark
       安娜玛丽亚·塞尔达 Annamaria Serda
       萨凡纳·斯泰恩 Savannah Steyn
       乔瓦娜·德拉加 Jovana Dragas
       柯林·麦克法兰 Colin McFarlane
       蒂娜‧普里比切维奇 Tina Pribicevic


◎标  签 惊悚 | 灾难 | 鳄鱼 | 美国 | 恐怖 | 血腥 | 2019 | 怪兽

◎简  介  

  一场猛烈的飓风正在逼近美国佛罗里达州的一座小镇。女主角海莉(卡雅·斯考达里奥饰)在游泳训练中接到了姐姐的电话,他们的父亲(巴里·佩珀饰)已经失联多时,她非常担心父亲的安危。海莉不顾撤离命令独自前往父亲家中,并最终在地下室里找到了身受重伤的父亲。洪水暴涨眼看就要将地下室淹没,海莉很快就意识到最可怕的并不是洪水,而是隐藏在水中的致命猛兽--鳄鱼。

  1. Video
  2. ID : 1
  3. Format : AVC
  4. Format/Info : Advanced Video Codec
  5. Format profile : High@L4.1
  6. Format settings : CABAC / 4 Ref Frames
  7. Format settings, CABAC : Yes
  8. Format settings, Reference frames : 4 frames
  9. Codec ID : V_MPEG4/ISO/AVC
  10. Duration : 1 h 27 min
  11. Bit rate : 15.3 Mb/s
  12. Width : 1 920 pixels
  13. Height : 804 pixels
  14. Display aspect ratio : 2.40:1
  15. Frame rate mode : Constant
  16. Frame rate : 23.976 (24000/1001) FPS
  17. Color space : YUV
  18. Chroma subsampling : 4:2:0
  19. Bit depth : 8 bits
  20. Scan type : Progressive
  21. Bits/(Pixel*Frame) : 0.412
  22. Stream size : 9.33 GiB (76%)
  23. Title : Crawl.2019.1080p.BluRay.x264.DTS-HD.MA.7.1-CHD
  24. Writing library : x264 core 157 r2867+150 7e91e0e t_mod_Custom_2 [8-bit@all X86_64]
  25. Encoding settings : cabac=1 / ref=4 / deblock=1:-3:-3 / analyse=0x3:0x133 / me=umh / subme=11 / psy=1 / fade_compensate=0.00 / psy_rd=0.90:0.10 / mixed_ref=1 / me_range=64 / chroma_me=1 / trellis=2 / 8x8dct=1 / cqm=0 / deadzone=21,11 / fast_pskip=0 / chroma_qp_offset=-4 / threads=25 / lookahead_threads=4 / sliced_threads=0 / nr=0 / decimate=1 / interlaced=0 / bluray_compat=0 / constrained_intra=0 / fgo=0 / bframes=8 / b_pyramid=2 / b_adapt=2 / b_bias=0 / direct=3 / weightb=1 / open_gop=0 / weightp=2 / keyint=250 / keyint_min=23 / scenecut=40 / intra_refresh=0 / rc_lookahead=60 / rc=crf / mbtree=0 / crf=18.0000 / qcomp=0.70 / qpmin=0:0:0 / qpmax=69:69:69 / qpstep=4 / vbv_maxrate=35000 / vbv_bufsize=35000 / crf_max=0.0 / nal_hrd=none / filler=0 / ip_ratio=1.40 / pb_ratio=1.30 / aq=3:1.00 / aq-sensitivity=10.00 / aq-factor=1.00:1.00:1.00 / aq2=0 / aq3=0
  26. Language : English
  27. Default : Yes
  28. Forced : No

  29. Audio
  30. ID : 2
  31. Format : DTS XLL
  32. Format/Info : Digital Theater Systems
  33. Commercial name : DTS-HD Master Audio
  34. Codec ID : A_DTS
  35. Duration : 1 h 27 min
  36. Bit rate mode : Variable
  37. Bit rate : 4 860 kb/s
  38. Channel(s) : 8 channels
  39. Channel layout : C L R LFE Lb Rb Lss Rss
  40. Sampling rate : 48.0 kHz
  41. Frame rate : 93.750 FPS (512 SPF)
  42. Bit depth : 24 bits
  43. Compression mode : Lossless
  44. Stream size : 2.97 GiB (24%)
  45. Title : Crawl.2019.1080p.BluRay.x264.DTS-HD.MA.7.1-CHD
  46. Language : English
  47. Default : Yes
  48. Forced : No

  49. Text #1
  50. ID : 3
  51. Format : UTF-8
  52. Codec ID : S_TEXT/UTF8
  53. Codec ID/Info : UTF-8 Plain Text
  54. Duration : 1 h 19 min
  55. Bit rate : 25 b/s
  56. Count of elements : 604
  57. Stream size : 14.9 KiB (0%)
  58. Title : English-SRT
  59. Language : English
  60. Default : Yes
  61. Forced : No

  62. Text #2
  63. ID : 4
  64. Format : PGS
  65. Muxing mode : zlib
  66. Codec ID : S_HDMV/PGS
  67. Codec ID/Info : Picture based subtitle format used on BDs/HD-DVDs
  68. Duration : 1 h 16 min
  69. Bit rate : 18.9 kb/s
  70. Count of elements : 1134
  71. Stream size : 10.4 MiB (0%)
  72. Title : English-PGS
  73. Language : English
  74. Default : No
  75. Forced : No
复制代码





游客,如果您要查看本帖隐藏内容请回复,您还可以免扣高清币免回复下载:https://www.85lou.com/plugin.php?id=wyfaka_url:url
回复

使用道具 举报

人气偶像

高清币
77
金钱
1756
鲜花
0
在线时间
345 小时
最后登录
2019-10-15
发表于 2019-10-5 01:58:55 | 显示全部楼层
谢谢楼主分享!
回复 支持 0 反对 1

使用道具 举报

金鸡奖主角

高清币
13
金钱
4122
鲜花
0
在线时间
1851 小时
最后登录
2019-10-7
发表于 2019-10-5 01:13:34 | 显示全部楼层
谢谢楼主分享
回复 支持 反对

使用道具 举报

知名艺人

高清币
2
金钱
596
鲜花
0
在线时间
478 小时
最后登录
2019-10-14
发表于 2019-10-5 01:19:35 | 显示全部楼层

楼主太厉害了!楼主,电影应该很好看我觉得中国高清论坛真是个好地方!
回复 支持 反对

使用道具 举报

金鸡奖主角

高清币
0
金钱
5352
鲜花
0
在线时间
478 小时
最后登录
2019-10-15
发表于 2019-10-5 01:29:15 | 显示全部楼层
谢谢楼主分享
回复 支持 反对

使用道具 举报

金鸡奖主角

高清币
98
金钱
7152
鲜花
0
在线时间
984 小时
最后登录
2019-10-15
发表于 2019-10-5 01:31:51 | 显示全部楼层
楼主发贴辛苦了,谢谢楼主分享!我觉得中国高清论坛是注册对了!
回复 支持 反对

使用道具 举报

人气偶像

高清币
34
金钱
1951
鲜花
0
在线时间
370 小时
最后登录
2019-10-13
发表于 2019-10-5 01:35:53 | 显示全部楼层

楼主太厉害了!楼主,电影应该很好看我觉得中国高清论坛真是个好地方!
回复 支持 反对

使用道具 举报

金鸡奖主角

高清币
440
金钱
4318
鲜花
0
在线时间
1814 小时
最后登录
2019-10-14
发表于 2019-10-5 01:38:29 | 显示全部楼层
感謝分享下載,新
回复 支持 反对

使用道具 举报

金鸡奖主角

高清币
35
金钱
4360
鲜花
0
在线时间
570 小时
最后登录
2019-10-15
发表于 2019-10-5 01:42:59 | 显示全部楼层

楼主太厉害了!楼主,电影应该很好看我觉得中国高清论坛真是个好地方!
回复 支持 反对

使用道具 举报

天王巨星

高清币
181
金钱
1947
鲜花
0
在线时间
588 小时
最后登录
2019-10-15
发表于 2019-10-5 01:49:03 | 显示全部楼层

这东西我收了!谢谢楼主!中国高清论坛真好!
回复 支持 反对

使用道具 举报

懒得打字嘛,点击右侧快捷回复 【右侧内容,后台自定义】
您需要登录后才可以回帖 登录 | 立即注册

本版积分规则

QQ|手机版|小黑屋|中国高清论坛 ( 黔ICP备16007815号-1 )

GMT+8, 2019-10-15 02:51 , Processed in 0.053760 second(s), 28 queries .

Powered by Discuz! X3.4

© 2001-2017 Comsenz Inc.

快速回复 返回顶部 返回列表