请选择 进入手机版 | 继续访问电脑版

中国高清论坛

 找回密码
 立即注册
亚博
搜索
查看: 6730|回复: 921

[动画片] 神奇女侠:血脉 Wonder.Woman.Bloodlines.2019.1080p.WEB-DL.DD5.1.H264-FGT 3.01 GiB

  [复制链接]

超级版主

高清币
17321
金钱
40139
鲜花
0
在线时间
12257 小时
最后登录
2019-10-14
发表于 2019-10-5 20:40:58 | 显示全部楼层 |阅读模式



◎译  名 神奇女侠:血脉
◎片  名 Wonder Woman: Bloodlines
◎年  代 2019
◎国  家 美国
◎类  别 动画/奇幻
◎语  言 英语
◎IMDb评分  4.6/10 from 7 users
◎IMDB链接 https://www.imdb.com/title/tt8364368/
◎片  长 1 h 22 min
◎导  演 贾斯汀·科普兰 Justin Copeland
       刘山姆 Sam Liu
◎主  演 罗莎里奥·道森 Rosario Dawson
       玛莉·艾格洛蒲露丝 Marie Avgeropoulosr
       艾德丽安·C·摩尔 Adrienne C. Moore



◎简  介


  该部电影是2009年以来的第二部“神奇女侠”动画电影,电影主要讲述神奇女侠神奇女侠要从致命犯罪的组织帮助一名深陷麻烦的女孩,而这个组织的目标是入侵神奇女侠的家乡天堂岛。
  1. Video
  2. ID : 1
  3. Format : AVC
  4. Format/Info : Advanced Video Codec
  5. Format profile : High@L4
  6. Format settings : CABAC / 4 Ref Frames
  7. Format settings, CABAC : Yes
  8. Format settings, Reference frames : 4 frames
  9. Codec ID : V_MPEG4/ISO/AVC
  10. Duration : 1 h 22 min
  11. Bit rate : 4 813 kb/s
  12. Width : 1 920 pixels
  13. Height : 1 080 pixels
  14. Display aspect ratio : 16:9
  15. Frame rate mode : Constant
  16. Frame rate : 23.976 FPS
  17. Color space : YUV
  18. Chroma subsampling : 4:2:0
  19. Bit depth : 8 bits
  20. Scan type : Progressive
  21. Bits/(Pixel*Frame) : 0.097
  22. Stream size : 2.79 GiB (93%)
  23. Title : Wonder.Woman.Bloodlines.2019.1080p.WEB-DL.DD5.1.H264-FGT
  24. Language : English
  25. Default : Yes
  26. Forced : No
  27. Color range : Limited
  28. Color primaries : BT.709
  29. Transfer characteristics : BT.709
  30. Matrix coefficients : BT.709

  31. Audio
  32. ID : 2
  33. Format : AC-3
  34. Format/Info : Audio Coding 3
  35. Commercial name : Dolby Digital
  36. Codec ID : A_AC3
  37. Duration : 1 h 22 min
  38. Bit rate mode : Constant
  39. Bit rate : 384 kb/s
  40. Channel(s) : 6 channels
  41. Channel layout : L R C LFE Ls Rs
  42. Sampling rate : 48.0 kHz
  43. Frame rate : 31.250 FPS (1536 SPF)
  44. Bit depth : 16 bits
  45. Compression mode : Lossy
  46. Stream size : 228 MiB (7%)
  47. Title : Wonder.Woman.Bloodlines.2019.1080p.WEB-DL.DD5.1.H264-FGT
  48. Language : English
  49. Service kind : Complete Main
  50. Default : Yes
  51. Forced : No

  52. Text
  53. ID : 3
  54. Format : UTF-8
  55. Codec ID : S_TEXT/UTF8
  56. Codec ID/Info : UTF-8 Plain Text
  57. Duration : 1 h 19 min
  58. Bit rate : 47 b/s
  59. Count of elements : 964
  60. Stream size : 27.6 KiB (0%)
  61. Language : English
  62. Default : Yes
  63. Forced : No

  64. Menu
  65. 00:00:00.000 : en:1
  66. 00:10:03.000 : en:2
  67. 00:19:53.000 : en:3
  68. 00:28:25.000 : en:4
  69. 00:38:44.000 : en:5
  70. 00:47:37.000 : en:6
  71. 00:54:35.000 : en:7
  72. 01:03:47.000 : en:8
  73. 01:12:13.000 : en:9
  74. 01:17:54.000 : en:10
复制代码








游客,如果您要查看本帖隐藏内容请回复,您还可以免扣高清币免回复下载:https://www.85lou.com/plugin.php?id=wyfaka_url:url
回复

使用道具 举报

好莱坞明星

高清币
1581
金钱
5500
鲜花
0
在线时间
763 小时
最后登录
2019-10-14
发表于 2019-10-5 20:42:20 | 显示全部楼层

我看不错噢 谢谢楼主!中国高清论坛越来越好!
回复 支持 反对

使用道具 举报

天王巨星

高清币
18
金钱
2395
鲜花
0
在线时间
521 小时
最后登录
2019-10-15
发表于 2019-10-5 20:42:24 | 显示全部楼层
不错,不错,感谢发布。
回复 支持 反对

使用道具 举报

永恒神话

高清币
40334
金钱
80196
鲜花
0
在线时间
6884 小时
最后登录
2019-10-14
发表于 2019-10-5 20:45:36 | 显示全部楼层
楼主发贴辛苦了,谢谢楼主分享!我觉得中国高清论坛是注册对了!
回复 支持 反对

使用道具 举报

跑龙套

高清币
14
金钱
18
鲜花
0
在线时间
2 小时
最后登录
2019-10-6
发表于 2019-10-5 20:45:50 | 显示全部楼层
幼 女 资 原【 w w w . u  n  3 . m e 】
回复 支持 反对

使用道具 举报

好莱坞明星

高清币
746
金钱
8112
鲜花
0
在线时间
1526 小时
最后登录
2019-10-14
发表于 2019-10-5 20:47:19 | 显示全部楼层

其实我一直觉得楼主的品味不错!呵呵!中国高清论坛太棒了!
回复 支持 反对

使用道具 举报

人气偶像

高清币
563
金钱
919
鲜花
0
在线时间
56 小时
最后登录
2019-10-14
发表于 2019-10-5 20:47:32 | 显示全部楼层
特别是娱乐圈的明星,
回复 支持 反对

使用道具 举报

天王巨星

高清币
34
金钱
3855
鲜花
0
在线时间
1211 小时
最后登录
2019-10-14
发表于 2019-10-5 20:48:02 | 显示全部楼层

既然你诚信诚意的推荐了,那我就勉为其难的看看吧!中国高清论坛不走平凡路。
回复 支持 反对

使用道具 举报

金鸡奖主角

高清币
1077
金钱
5329
鲜花
0
在线时间
586 小时
最后登录
2019-10-13
发表于 2019-10-5 20:48:27 | 显示全部楼层

楼主太厉害了!楼主,电影应该很好看我觉得中国高清论坛真是个好地方!
回复 支持 反对

使用道具 举报

人气偶像

高清币
563
金钱
919
鲜花
0
在线时间
56 小时
最后登录
2019-10-14
发表于 2019-10-5 20:49:37 | 显示全部楼层
因为文化的原因,
回复 支持 反对

使用道具 举报

懒得打字嘛,点击右侧快捷回复 【右侧内容,后台自定义】
您需要登录后才可以回帖 登录 | 立即注册

本版积分规则

QQ|手机版|小黑屋|中国高清论坛 ( 黔ICP备16007815号-1 )

GMT+8, 2019-10-15 01:40 , Processed in 0.051888 second(s), 26 queries .

Powered by Discuz! X3.4

© 2001-2017 Comsenz Inc.

快速回复 返回顶部 返回列表