请选择 进入手机版 | 继续访问电脑版

中国高清论坛

 找回密码
 立即注册
亚博
搜索
查看: 853|回复: 107

[其他] 庆祝中华人民共和国成立70周年大会.2160p.CCTV-4K.UHDTV.HEVC.DD5.1-FLTTH.ts 46.7G

  [复制链接]

高清发布组

高清币
3382
金钱
4437
鲜花
5
在线时间
968 小时
最后登录
2019-10-14
发表于 7 天前 | 显示全部楼层 |阅读模式
SS_00019.jpg SS_00021.jpg SS_00022.jpg SS_00023.jpg SS_00024.jpg SS_00025.jpg
  1. General
  2. ID                                       : 36 (0x24)
  3. Complete name                            : 庆祝中华人民共和国成立70周年大会.20191001.2160p.CCTV-4K.UHDTV.HEVC.10bit.HDR.DD5.1-FLTTH.ts
  4. Format                                   : MPEG-TS
  5. File size                                : 46.7 GiB
  6. Duration                                 : 3 h 8 min
  7. Overall bit rate mode                    : Variable
  8. Overall bit rate                         : 35.4 Mb/s

  9. Video
  10. ID                                       : 7010 (0x1B62)
  11. Menu ID                                  : 701 (0x2BD)
  12. Format                                   : HEVC
  13. Format/Info                              : High Efficiency Video Coding
  14. Format profile                           : Main 10@L5@High
  15. Codec ID                                 : 36
  16. Duration                                 : 19 h 33 min
  17. Bit rate                                 : 33.2 Mb/s
  18. Width                                    : 3 840 pixels
  19. Height                                   : 2 160 pixels
  20. Display aspect ratio                     : 16:9
  21. Frame rate                               : 50.000 FPS
  22. Standard                                 : Component
  23. Color space                              : YUV
  24. Chroma subsampling                       : 4:2:0 (Type 0)
  25. Bit depth                                : 10 bits
  26. Bits/(Pixel*Frame)                       : 0.080
  27. Stream size                              : 272 GiB
  28. Color range                              : Limited
  29. Color primaries                          : BT.2020
  30. Transfer characteristics                 : HLG
  31. Matrix coefficients                      : BT.2020 non-constant

  32. Audio
  33. ID                                       : 7011 (0x1B63)
  34. Menu ID                                  : 701 (0x2BD)
  35. Format                                   : AC-3
  36. Format/Info                              : Audio Coding 3
  37. Commercial name                          : Dolby Digital
  38. Codec ID                                 : 6
  39. Duration                                 : 3 h 8 min
  40. Bit rate mode                            : Constant
  41. Bit rate                                 : 448 kb/s
  42. Channel(s)                               : 6 channels
  43. Channel layout                           : L R C LFE Ls Rs
  44. Sampling rate                            : 48.0 kHz
  45. Frame rate                               : 31.250 FPS (1536 SPF)
  46. Bit depth                                : 16 bits
  47. Compression mode                         : Lossy
  48. Delay relative to video                  : -289 ms
  49. Stream size                              : 605 MiB (1%)
  50. Service kind                             : Complete Main

  51. Menu
  52. ID                                       : 7015 (0x1B67)
  53. Menu ID                                  : 701 (0x2BD)
  54. Duration                                 : 3 h 8 min
  55. List                                     : 7010 (0x1B62) (HEVC) / 7011 (0x1B63) (AC-3)
  56. Service name                             : CCTV-4K超高清
  57. Service provider                         : BGCTV
  58. Service type                             : user defined

复制代码
节目介绍:
    庆祝中华人民共和国成立70周年活动主要包括:举行庆祝大会、阅兵式和群众游行,举办首都国庆联欢活动,颁授国家勋章和国家荣誉称号,举行向人民英雄敬献花篮仪式,举办国庆招待会,举办国庆文艺晚会,举办庆祝中华人民共和国成立70周年大型成就展,颁发“庆祝中华人民共和国成立70周年”纪念章,制作播出大型文献专题片,发行纪念邮票和纪念币等。
    2019年10月1日,首都天安门举行盛大阅兵式。这是国家重大纪念日阅兵的制度化安排。此次阅兵是中国特色社会主义进入新时代的首次国庆阅兵,也是人民军队改革重塑后的首次集中亮相。
    有别于纪念抗战胜利阅兵、“沙场”阅兵和海上阅兵等专题阅兵,此次阅兵将在充分展示改革强军成就的同时,凸显国庆阅兵的庆典特色,规模上要比庆祝新中国成立50周年、60周年阅兵和纪念抗战胜利70周年阅兵大一些。
    本次阅兵部队由徒步方队、装备方队和空中梯队三部分组成。徒步方队重点体现我军重塑重构后新的领导指挥体制、规模结构和力量编成,展示我国“三结合”的武装力量组成;装备方队重点体现我国国防科技工业自主创新能力和武器装备研发水平,受阅武器装备全部为国产现役主战装备,不少装备将是首次亮相;空中梯队重点体现我军航空兵发展体系化水平,展示空中作战新质能力和强大实力。
    群众游行活动采用“讲故事”的方式,每个方阵展现一个场景、讲述一段故事,小方阵连成大画卷,小场景反映大时代,小故事传递大道理,在长安街上徐徐展开一幅流动的新中国发展、新时代奋进画卷。
    群众游行活动中,游行群众涵盖各行各业、各族各界。彩车主体形象精准选取生动传神、便于理解的人物形象和造型载体,将传统文化与现代艺术充分结合。天安门广场布置“红飘带”主题景观雕塑,广场东西两侧平行悬挂70个红色充气灯笼。广场内还设置临时观礼台,让更多的各界群众能够到现场观礼。
    首都国庆联欢活动中,3290名联欢群众将在金水桥南端的长安街上,通过手持发光屏和表演道具艺术化表现中华民族从站起来、富起来到强起来的伟大飞跃,有关省区市的特色群众艺术团体3650人将生动呈现各地特色文化。主题表演区东西两侧设立“幸福生活”“同心筑梦”“时代风采”等10个主题的群众联欢区块,让联欢群众自发表达爱国情感。烟花表演通过高、中、低空烟花燃放和特殊烟花装置表演,分波次、多新意地展现烟花艺术的魅力。
    联欢活动充分体现群众性,主题表演、中心联欢表演、群众联欢全部都由各界群众来承担,联欢活动上没有一名专业的歌唱演员,所有歌曲演唱全部都由联欢群众来完成。

下载地址:
https://pan.baidu.com/s/1uj0WEZolow-icWAnBg79FQ 提取码:mpbh

回复

使用道具 举报

超级明星

高清币
38
金钱
9395
鲜花
0
在线时间
1394 小时
最后登录
2019-10-14
发表于 7 天前 | 显示全部楼层

楼主太厉害了!楼主,电影应该很好看我觉得中国高清论坛真是个好地方!
回复 支持 反对

使用道具 举报

永恒神话

高清币
10231
金钱
31882
鲜花
0
在线时间
2290 小时
最后登录
2019-10-15
发表于 7 天前 | 显示全部楼层
楼主发贴辛苦了,谢谢楼主分享!我觉得中国高清论坛是注册对了!
回复 支持 反对

使用道具 举报

金鸡奖主角

高清币
222
金钱
5302
鲜花
0
在线时间
829 小时
最后登录
2019-10-14
发表于 7 天前 | 显示全部楼层
楼主发贴辛苦了,谢谢楼主分享!我觉得中国高清论坛是注册对了!
回复 支持 反对

使用道具 举报

superstar

高清币
4550
金钱
12553
鲜花
0
在线时间
1179 小时
最后登录
2019-10-14
发表于 7 天前 | 显示全部楼层

楼主太厉害了!楼主,电影应该很好看我觉得中国高清论坛真是个好地方!
回复 支持 反对

使用道具 举报

金鸡奖主角

高清币
1398
金钱
4986
鲜花
0
在线时间
488 小时
最后登录
2019-10-14
发表于 7 天前 | 显示全部楼层
楼主发贴辛苦了,谢谢楼主分享!
回复 支持 反对

使用道具 举报

人气偶像

高清币
39
金钱
851
鲜花
0
在线时间
187 小时
最后登录
2019-10-14
发表于 7 天前 | 显示全部楼层
楼主发贴辛苦了,谢谢楼主分享!我觉得中国高清论坛是注册对了!
回复 支持 反对

使用道具 举报

人气偶像

高清币
106
金钱
1838
鲜花
0
在线时间
348 小时
最后登录
2019-10-13
发表于 7 天前 | 显示全部楼层

其实我一直觉得楼主的品味不错!呵呵!中国高清论坛太棒了!
回复 支持 反对

使用道具 举报

人气偶像

高清币
106
金钱
1838
鲜花
0
在线时间
348 小时
最后登录
2019-10-13
发表于 7 天前 | 显示全部楼层

其实我一直觉得楼主的品味不错!呵呵!中国高清论坛太棒了!
回复 支持 反对

使用道具 举报

人气偶像

高清币
27
金钱
1328
鲜花
0
在线时间
275 小时
最后登录
2019-10-14
发表于 7 天前 | 显示全部楼层
顶楼主,有格局。
回复 支持 反对

使用道具 举报

懒得打字嘛,点击右侧快捷回复 【右侧内容,后台自定义】
您需要登录后才可以回帖 登录 | 立即注册

本版积分规则

QQ|手机版|小黑屋|中国高清论坛 ( 黔ICP备16007815号-1 )

GMT+8, 2019-10-15 02:55 , Processed in 0.053517 second(s), 25 queries .

Powered by Discuz! X3.4

© 2001-2017 Comsenz Inc.

快速回复 返回顶部 返回列表