请选择 进入手机版 | 继续访问电脑版

中国高清论坛

 找回密码
 立即注册
亚博
搜索
查看: 470|回复: 101

[传记片] 凭火决狱/火的考验 Trial.By.Fire.2018.MULTI.1080p.WEB.H264-EXTREME 5.32 GiB

  [复制链接]

超级版主

高清币
17321
金钱
40139
鲜花
0
在线时间
12257 小时
最后登录
2019-10-14
发表于 6 天前 | 显示全部楼层 |阅读模式



◎译  名 凭火决狱/火的考验
◎片  名 Trial By Fire
◎年  代 2019
◎国  家 美国
◎类  别 传记/剧情
◎语  言 英语
◎IMDb评分 6.1/10 from 163 users
◎IMDB链接 https://www.imdb.com/title/tt3263946/
◎片  长 2 h 7 min
◎导  演 爱德华·兹威克 Edward Zwick
◎主  演 劳拉·邓恩 Laura Dern
       杰克·奥康奈尔 Jack O'Connell
       杰夫·帕里 Jeff Perry


◎简  介

  电影根据David Grann的报道改编,讲述了一位父亲Todd Willingham(Shia)被指控纵火谋杀了自己的三个孩子,虽然他一直坚称自己是无辜的,但还是被执行了死刑。在这过程中,剧作家Elziabeth Gilbert(将由劳拉·邓恩扮演)一直捍卫着Todd的清白。这位女作家在Todd的故事中的经历也很离奇——在Todd被送去执行死刑时,她自己也遭遇了一场严重的车祸。在Todd被执行死刑之后,Gilbert成了坚定的反对死刑的人士。
  1. General
  2. Unique ID                      : 152288393356755861811878497216178139234 (0x7291AD7D68B5BE83A32819120763B062)
  3. Complete name                  : D:\迅雷下载\[ Torrent9.cz ] Trial.By.Fire.2018.MULTI.1080p.WEB.H264-EXTREME.mkv
  4. Format                         : Matroska
  5. Format version                 : Version 4
  6. File size                      : 5.32 GiB
  7. Duration                       : 2 h 7 min
  8. Overall bit rate               : 5 974 kb/s
  9. Encoded date                   : UTC 2019-10-08 09:21:31
  10. Writing application            : mkvmerge v37.0.0 ('Leave It') 64-bit
  11. Writing library                : libebml v1.3.9 + libmatroska v1.5.2
  12. FileExtension_Invalid          : mkv mk3d mka mks

  13. Video
  14. ID                             : 5
  15. Format                         : AVC
  16. Format/Info                    : Advanced Video Codec
  17. Format profile                 : High@L4
  18. Format settings                : CABAC / 4 Ref Frames
  19. Format settings, CABAC         : Yes
  20. Format settings, ReFrames      : 4 frames
  21. Codec ID                       : V_MPEG4/ISO/AVC
  22. Duration                       : 2 h 7 min
  23. Bit rate                       : 5 087 kb/s
  24. Width                          : 1 916 pixels
  25. Height                         : 1 032 pixels
  26. Display aspect ratio           : 1.85:1
  27. Frame rate mode                : Constant
  28. Frame rate                     : 23.976 (24000/1001) FPS
  29. Color space                    : YUV
  30. Chroma subsampling             : 4:2:0
  31. Bit depth                      : 8 bits
  32. Scan type                      : Progressive
  33. Bits/(Pixel*Frame)             : 0.107
  34. Stream size                    : 4.53 GiB (85%)
  35. Language                       : English
  36. Default                        : Yes
  37. Forced                         : No
  38. Color range                    : Limited
  39. Color primaries                : BT.709
  40. Transfer characteristics       : BT.709
  41. Matrix coefficients            : BT.709

  42. Audio #1
  43. ID                             : 3
  44. Format                         : AC-3
  45. Format/Info                    : Audio Coding 3
  46. Commercial name                : Dolby Digital
  47. Codec ID                       : A_AC3
  48. Duration                       : 2 h 7 min
  49. Bit rate mode                  : Constant
  50. Bit rate                       : 384 kb/s
  51. Channel(s)                     : 6 channels
  52. Channel layout                 : L R C LFE Ls Rs
  53. Sampling rate                  : 48.0 kHz
  54. Frame rate                     : 31.250 FPS (1536 SPF)
  55. Bit depth                      : 16 bits
  56. Compression mode               : Lossy
  57. Delay relative to video        : -43 ms
  58. Stream size                    : 350 MiB (6%)
  59. Language                       : French
  60. Service kind                   : Complete Main
  61. Default                        : Yes
  62. Forced                         : No

  63. Audio #2
  64. ID                             : 4
  65. Format                         : AC-3
  66. Format/Info                    : Audio Coding 3
  67. Commercial name                : Dolby Digital
  68. Codec ID                       : A_AC3
  69. Duration                       : 2 h 7 min
  70. Bit rate mode                  : Constant
  71. Bit rate                       : 384 kb/s
  72. Channel(s)                     : 6 channels
  73. Channel layout                 : L R C LFE Ls Rs
  74. Sampling rate                  : 48.0 kHz
  75. Frame rate                     : 31.250 FPS (1536 SPF)
  76. Bit depth                      : 16 bits
  77. Compression mode               : Lossy
  78. Delay relative to video        : -43 ms
  79. Stream size                    : 350 MiB (6%)
  80. Language                       : English
  81. Service kind                   : Complete Main
  82. Default                        : No
  83. Forced                         : No

  84. Text #1
  85. ID                             : 1
  86. Format                         : UTF-8
  87. Codec ID                       : S_TEXT/UTF8
  88. Codec ID/Info                  : UTF-8 Plain Text
  89. Title                          : Forced
  90. Language                       : French
  91. Default                        : Yes
  92. Forced                         : No

  93. Text #2
  94. ID                             : 2
  95. Format                         : UTF-8
  96. Codec ID                       : S_TEXT/UTF8
  97. Codec ID/Info                  : UTF-8 Plain Text
  98. Title                          : French
  99. Language                       : French
  100. Default                        : No
  101. Forced                         : No

  102. Menu
  103. 00:00:00.000                   : en:1
  104. 00:10:20.537                   : en:2
  105. 00:14:37.292                   : en:3
  106. 00:24:55.201                   : en:4
  107. 00:29:13.124                   : en:5
  108. 00:34:14.425                   : en:6
  109. 00:42:33.464                   : en:7
  110. 00:48:40.205                   : en:8
  111. 00:54:32.473                   : en:9
  112. 01:01:57.500                   : en:10
  113. 01:09:14.310                   : en:11
  114. 01:16:44.843                   : en:12
  115. 01:24:17.961                   : en:13
  116. 01:32:57.355                   : en:14
  117. 01:41:02.798                   : en:15
  118. 01:47:44.157                   : en:16
  119. 01:54:16.257                   : en:17
  120. 02:00:20.579                   : en:18
  121. 02:03:22.801                   : en:19

复制代码

游客,如果您要查看本帖隐藏内容请回复,您还可以免扣高清币免回复下载:https://www.85lou.com/plugin.php?id=wyfaka_url:url


回复

使用道具 举报

影坛巨星

高清币
4331
金钱
6017
鲜花
0
在线时间
930 小时
最后登录
2019-10-14
发表于 6 天前 | 显示全部楼层

我看不错噢 谢谢楼主!中国高清论坛越来越好!
回复 支持 反对

使用道具 举报

跑龙套

高清币
1
金钱
3
鲜花
0
在线时间
0 小时
最后登录
2019-10-9
发表于 6 天前 | 显示全部楼层
悄悄看的【 w w w . 9 b m . m e 】
回复 支持 反对

使用道具 举报

永恒神话

高清币
19325
金钱
33235
鲜花
0
在线时间
2619 小时
最后登录
2019-10-14
发表于 6 天前 | 显示全部楼层
谢谢发片,辛苦了
回复 支持 反对

使用道具 举报

人气偶像

高清币
19
金钱
829
鲜花
0
在线时间
76 小时
最后登录
2019-10-13
发表于 6 天前 | 显示全部楼层
凭火决狱/火的考验 Trial.By.Fire.2018.MULTI.1080p.WEB.H264-EXTREME 5.32 GiB
回复 支持 反对

使用道具 举报

金鸡奖主角

高清币
519
金钱
2907
鲜花
0
在线时间
224 小时
最后登录
2019-10-14
发表于 6 天前 | 显示全部楼层

楼主太厉害了!楼主,电影应该很好看我觉得中国高清论坛真是个好地方!
回复 支持 反对

使用道具 举报

金鸡奖主角

高清币
17
金钱
3365
鲜花
0
在线时间
513 小时
最后登录
2019-10-11
发表于 6 天前 | 显示全部楼层
楼主发贴辛苦了,谢谢楼主分享!我觉得中国高清论坛是注册对了
回复 支持 反对

使用道具 举报

superstar

高清币
5668
金钱
7532
鲜花
0
在线时间
1566 小时
最后登录
2019-10-15
发表于 6 天前 | 显示全部楼层

我看不错噢 谢谢楼主!中国高清论坛越来越好!
回复 支持 反对

使用道具 举报

知名艺人

高清币
11
金钱
425
鲜花
0
在线时间
128 小时
最后登录
2019-10-14
发表于 6 天前 | 显示全部楼层

我看不错噢 谢谢楼主!中国高清论坛越来越好!
回复 支持 反对

使用道具 举报

天王巨星

高清币
44
金钱
2036
鲜花
0
在线时间
274 小时
最后登录
2019-10-15
发表于 6 天前 | 显示全部楼层

楼主太厉害了!楼主,电影应该很好看我觉得中国高清论坛真是个好地方!
回复 支持 反对

使用道具 举报

懒得打字嘛,点击右侧快捷回复 【右侧内容,后台自定义】
您需要登录后才可以回帖 登录 | 立即注册

本版积分规则

QQ|手机版|小黑屋|中国高清论坛 ( 黔ICP备16007815号-1 )

GMT+8, 2019-10-15 02:45 , Processed in 0.054792 second(s), 26 queries .

Powered by Discuz! X3.4

© 2001-2017 Comsenz Inc.

快速回复 返回顶部 返回列表