请选择 进入手机版 | 继续访问电脑版

中国高清论坛

 找回密码
 立即注册
亚博
搜索
查看: 787|回复: 153

[传记片] 凭火决狱/火的考验 Trial.by.Fire.2018.AMZN.WEB-DL.1080p.seleZen 9.30 GiB

  [复制链接]

超级版主

高清币
17321
金钱
40139
鲜花
0
在线时间
12257 小时
最后登录
2019-10-14
发表于 6 天前 | 显示全部楼层 |阅读模式



◎译  名 凭火决狱/火的考验
◎片  名 Trial By Fire
◎年  代 2019
◎国  家 美国
◎类  别 传记/剧情
◎语  言 英语
◎IMDb评分 6.1/10 from 163 users
◎IMDB链接 https://www.imdb.com/title/tt3263946/
◎片  长 2 h 7 min
◎导  演 爱德华·兹威克 Edward Zwick
◎主  演 劳拉·邓恩 Laura Dern
       杰克·奥康奈尔 Jack O'Connell
       杰夫·帕里 Jeff Perry


◎简  介

  电影根据David Grann的报道改编,讲述了一位父亲Todd Willingham(Shia)被指控纵火谋杀了自己的三个孩子,虽然他一直坚称自己是无辜的,但还是被执行了死刑。在这过程中,剧作家Elziabeth Gilbert(将由劳拉·邓恩扮演)一直捍卫着Todd的清白。这位女作家在Todd的故事中的经历也很离奇——在Todd被送去执行死刑时,她自己也遭遇了一场严重的车祸。在Todd被执行死刑之后,Gilbert成了坚定的反对死刑的人士。

  1. General
  2. Unique ID : 46492258110783131336680271185908233286 (0x22FA154D1ACB0F4DCCB9BE3E511E7446)
  3. Complete name : D:Video111Trial.by.Fire.2018.AMZN.WEB-DL.1080p.seleZen.mkv
  4. Format : Matroska
  5. Format version : Version 4
  6. File size : 9.30 GiB
  7. Duration : 2 h 7 min
  8. Overall bit rate : 10.5 Mb/s
  9. Movie name : Trial by Fire 2018 from селезень
  10. Encoded date : UTC 2019-10-09 05:10:25
  11. Writing application : mkvmerge v37.0.0 ('Leave It') 64-bit
  12. Writing library : libebml v1.3.9 + libmatroska v1.5.2

  13. Video
  14. ID : 1
  15. Format : AVC
  16. Format/Info : Advanced Video Codec
  17. Format profile : High@L4
  18. Format settings : CABAC / 4 Ref Frames
  19. Format settings, CABAC : Yes
  20. Format settings, Reference : 4 frames
  21. Codec ID : V_MPEG4/ISO/AVC
  22. Duration : 2 h 7 min
  23. Bit rate mode : Constant
  24. Bit rate : 9 262 kb/s
  25. Nominal bit rate : 10 000 kb/s
  26. Width : 1 920 pixels
  27. Height : 1 040 pixels
  28. Display aspect ratio : 1.85:1
  29. Frame rate mode : Constant
  30. Frame rate : 23.976 (24000/1001) FPS
  31. Color space : YUV
  32. Chroma subsampling : 4:2:0
  33. Bit depth : 8 bits
  34. Scan type : Progressive
  35. Bits/(Pixel*Frame) : 0.193
  36. Stream size : 8.22 GiB (88%)
  37. Language : English
  38. Default : Yes
  39. Forced : No
  40. Color range : Limited
  41. Color primaries : BT.709
  42. Transfer characteristics : BT.709
  43. Matrix coefficients : BT.709

  44. Audio #1
  45. ID : 2
  46. Format : AC-3
  47. Format/Info : Audio Coding 3
  48. Commercial name : Dolby Digital
  49. Codec ID : A_AC3
  50. Duration : 2 h 7 min
  51. Bit rate mode : Constant
  52. Bit rate : 384 kb/s
  53. Channel(s) : 6 channels
  54. Channel layout : L R C LFE Ls Rs
  55. Sampling rate : 48.0 kHz
  56. Frame rate : 31.250 FPS (1536 SPF)
  57. Bit depth : 16 bits
  58. Compression mode : Lossy
  59. Stream size : 349 MiB (4%)
  60. Title : Dub [iTunes]
  61. Language : Russian
  62. Service kind : Complete Main
  63. Default : Yes
  64. Forced : Yes

  65. Audio #2
  66. ID : 3
  67. Format : AC-3
  68. Format/Info : Audio Coding 3
  69. Commercial name : Dolby Digital
  70. Codec ID : A_AC3
  71. Duration : 2 h 7 min
  72. Bit rate mode : Constant
  73. Bit rate : 192 kb/s
  74. Channel(s) : 2 channels
  75. Channel layout : L R
  76. Sampling rate : 48.0 kHz
  77. Frame rate : 31.250 FPS (1536 SPF)
  78. Bit depth : 16 bits
  79. Compression mode : Lossy
  80. Stream size : 175 MiB (2%)
  81. Title : MVO [HDRezka Studio]
  82. Language : Russian
  83. Service kind : Complete Main
  84. Default : No
  85. Forced : No

  86. Audio #3
  87. ID : 4
  88. Format : E-AC-3
  89. Format/Info : Enhanced AC-3
  90. Commercial name : Dolby Digital Plus
  91. Codec ID : A_EAC3
  92. Duration : 2 h 7 min
  93. Bit rate mode : Constant
  94. Bit rate : 640 kb/s
  95. Channel(s) : 6 channels
  96. Channel layout : L R C LFE Ls Rs
  97. Sampling rate : 48.0 kHz
  98. Frame rate : 31.250 FPS (1536 SPF)
  99. Compression mode : Lossy
  100. Stream size : 582 MiB (6%)
  101. Title : Original
  102. Language : English
  103. Service kind : Complete Main
  104. Default : No
  105. Forced : No

  106. Text #1
  107. ID : 5
  108. Format : UTF-8
  109. Codec ID : S_TEXT/UTF8
  110. Codec ID/Info : UTF-8 Plain Text
  111. Duration : 2 h 6 min
  112. Bit rate : 2 b/s
  113. Count of elements : 41
  114. Stream size : 2.02 KiB (0%)
  115. Title : Forced
  116. Language : Russian
  117. Default : Yes
  118. Forced : Yes

  119. Text #2
  120. ID : 6
  121. Format : UTF-8
  122. Codec ID : S_TEXT/UTF8
  123. Codec ID/Info : UTF-8 Plain Text
  124. Duration : 2 h 6 min
  125. Bit rate : 106 b/s
  126. Count of elements : 1772
  127. Stream size : 98.4 KiB (0%)
  128. Title : Full
  129. Language : Russian
  130. Default : No
  131. Forced : No

  132. Text #3
  133. ID : 7
  134. Format : UTF-8
  135. Codec ID : S_TEXT/UTF8
  136. Codec ID/Info : UTF-8 Plain Text
  137. Duration : 2 h 3 min
  138. Bit rate : 71 b/s
  139. Count of elements : 2000
  140. Stream size : 64.2 KiB (0%)
  141. Title : Full
  142. Language : English
  143. Default : No
  144. Forced : No

  145. Text #4
  146. ID : 8
  147. Format : UTF-8
  148. Codec ID : S_TEXT/UTF8
  149. Codec ID/Info : UTF-8 Plain Text
  150. Duration : 2 h 3 min
  151. Bit rate : 74 b/s
  152. Count of elements : 2080
  153. Stream size : 67.7 KiB (0%)
  154. Title : SDH
  155. Language : English
  156. Default : No
  157. Forced : No

  158. Menu
  159. 00:00:00.000 : en:1
  160. 00:10:09.441 : en:2
  161. 00:14:26.196 : en:3
  162. 00:24:44.105 : en:4
  163. 00:29:02.028 : en:5
  164. 00:34:03.329 : en:6
  165. 00:42:22.368 : en:7
  166. 00:48:29.109 : en:8
  167. 00:54:21.377 : en:9
  168. 01:01:46.404 : en:10
  169. 01:09:03.214 : en:11
  170. 01:16:33.747 : en:12
  171. 01:24:06.865 : en:13
  172. 01:32:46.259 : en:14
  173. 01:40:51.702 : en:15
  174. 01:47:33.061 : en:16
  175. 01:54:05.161 : en:17
  176. 02:00:09.483 : en:18
  177. 02:03:11.705 : en:19
复制代码


游客,如果您要查看本帖隐藏内容请回复,您还可以免扣高清币免回复下载:https://www.85lou.com/plugin.php?id=wyfaka_url:url
回复

使用道具 举报

金鸡奖主角

高清币
1226
金钱
2111
鲜花
0
在线时间
367 小时
最后登录
2019-10-14
发表于 6 天前 | 显示全部楼层
楼主发贴辛苦了,谢谢楼主分享!我觉得中国高清论坛是注册对了!
回复 支持 反对

使用道具 举报

永恒神话

高清币
5791
金钱
13754
鲜花
0
在线时间
2272 小时
最后登录
2019-10-15
发表于 6 天前 | 显示全部楼层

楼主太厉害了!楼主,电影应该很好看我觉得中国高清论坛真是个好地方!
回复 支持 反对

使用道具 举报

永恒神话

高清币
19325
金钱
33235
鲜花
0
在线时间
2619 小时
最后登录
2019-10-14
发表于 6 天前 | 显示全部楼层
谢谢发片,辛苦了
回复 支持 反对

使用道具 举报

天王巨星

高清币
774
金钱
2108
鲜花
0
在线时间
950 小时
最后登录
2019-10-14
发表于 6 天前 | 显示全部楼层
楼主发贴辛苦了,谢谢楼主分享!我觉得中国高清论坛是注册对了!
回复 支持 反对

使用道具 举报

天王巨星

高清币
798
金钱
1970
鲜花
0
在线时间
217 小时
最后登录
2019-10-9
发表于 6 天前 | 显示全部楼层



2019最火最牛的小视频都在这!
(兑换邀请码:uk23735046)
https://lihi1.com/tjxT4

回复 支持 反对

使用道具 举报

天王巨星

高清币
798
金钱
1970
鲜花
0
在线时间
217 小时
最后登录
2019-10-9
发表于 6 天前 | 显示全部楼层



2019最火最牛的小视频都在这!
(兑换邀请码:uk23735046)
https://lihi1.com/tjxT4

回复 支持 反对

使用道具 举报

天王巨星

高清币
156
金钱
2192
鲜花
0
在线时间
255 小时
最后登录
2019-10-10
发表于 6 天前 | 显示全部楼层
楼主发贴辛苦了,谢谢楼主分享!我觉得中国高清论坛是注册对了!
回复 支持 反对

使用道具 举报

超级明星

高清币
163
金钱
6762
鲜花
0
在线时间
864 小时
最后登录
2019-10-14
发表于 6 天前 | 显示全部楼层
楼主发贴辛苦了,谢谢楼主分享!
回复 支持 反对

使用道具 举报

超级明星

高清币
1129
金钱
7417
鲜花
0
在线时间
701 小时
最后登录
2019-10-14
发表于 6 天前 | 显示全部楼层
楼主发贴辛苦了,谢谢楼主分享!我觉得中国高清论坛是注册对了!
回复 支持 反对

使用道具 举报

懒得打字嘛,点击右侧快捷回复 【右侧内容,后台自定义】
您需要登录后才可以回帖 登录 | 立即注册

本版积分规则

QQ|手机版|小黑屋|中国高清论坛 ( 黔ICP备16007815号-1 )

GMT+8, 2019-10-15 01:55 , Processed in 0.049746 second(s), 26 queries .

Powered by Discuz! X3.4

© 2001-2017 Comsenz Inc.

快速回复 返回顶部 返回列表