请选择 进入手机版 | 继续访问电脑版

中国高清论坛

 找回密码
 立即注册
亚博
搜索
查看: 954|回复: 251

[剧情片] 朽木//化外国度电影版(台) Deadwood.The.Movie.2019.BDRip.1080p.seleZen 10.24 GiB

  [复制链接]

超级版主

高清币
17321
金钱
40139
鲜花
0
在线时间
12257 小时
最后登录
2019-10-14
发表于 6 天前 | 显示全部楼层 |阅读模式




◎译  名 朽木/无法无天大电影(港)/化外国度电影版(台)
◎片  名 Deadwood
◎年  代 2019
◎国  家 美国
◎类  别 剧情
◎语  言 英语
◎IMDb评分 9.3/10 from 397 users
◎IMDB链接 https://www.imdb.com/title/tt4943998/
◎片  长 1 h 50 min
◎导  演 丹尼尔·米纳汉 Daniel Minahan
◎主  演 伊恩·麦柯肖恩 Ian McShane
       蒂莫西·奥利芬特 Timothy Olyphant
       金·迪肯斯 Kim Dickens
       布拉德·道里夫 Brad Dourif

◎简  介

  HBO正式宣布电影版[朽木]将于10月开机,有望明春播出。去年便已传出《朽木》编剧大卫·米尔契已完成了电影版剧本。剧版于2004年至2006年播出了三季,但粉丝始终没有迎来最终的大结局,该剧故事围绕美国疆界之外的一个矿镇展开。此前有消息称原剧众卡司均有望回归,包括伊恩·麦柯肖恩、蒂莫西·奥利芬特、约翰·浩克斯、莫莉·帕克、布拉德·道里夫等
  1. General
  2. Unique ID : 43117255413416879764779074383613617086 (0x207014D22D5B85EB64E3F294CEB563BE)
  3. Complete name : D:Video111Deadwood.The.Movie.2019.BDRip.1080p.seleZen.mkv
  4. Format : Matroska
  5. Format version : Version 4
  6. File size : 10.2 GiB
  7. Duration : 1 h 50 min
  8. Overall bit rate : 13.3 Mb/s
  9. Movie name : Deadwood The Movie 2019 from селезень
  10. Encoded date : UTC 2019-10-08 19:51:13
  11. Writing application : mkvmerge v22.0.0 ('At The End Of The World') 64-bit
  12. Writing library : libebml v1.3.5 + libmatroska v1.4.8

  13. Video
  14. ID : 1
  15. Format : AVC
  16. Format/Info : Advanced Video Codec
  17. Format profile : High@L4.1
  18. Format settings : CABAC / 4 Ref Frames
  19. Format settings, CABAC : Yes
  20. Format settings, Reference : 4 frames
  21. Codec ID : V_MPEG4/ISO/AVC
  22. Duration : 1 h 50 min
  23. Bit rate : 10.8 Mb/s
  24. Width : 1 920 pixels
  25. Height : 960 pixels
  26. Display aspect ratio : 2.000
  27. Frame rate mode : Constant
  28. Frame rate : 23.976 (24000/1001) FPS
  29. Color space : YUV
  30. Chroma subsampling : 4:2:0
  31. Bit depth : 8 bits
  32. Scan type : Progressive
  33. Bits/(Pixel*Frame) : 0.245
  34. Stream size : 8.32 GiB (81%)
  35. Title : Encoded by seleZen
  36. Writing library : x264 core 148 r2705kMod 3f5ed56
  37. Encoding settings : cabac=1 / ref=4 / deblock=1:-2:-2 / analyse=0x3:0x113 / me=umh / subme=11 / psy=1 / fade_compensate=0.00 / psy_rd=0.90:0.00 / mixed_ref=1 / me_range=32 / chroma_me=1 / trellis=2 / 8x8dct=1 / cqm=0 / deadzone=21,11 / fast_pskip=0 / chroma_qp_offset=-2 / threads=24 / lookahead_threads=6 / sliced_threads=0 / nr=0 / decimate=0 / interlaced=0 / bluray_compat=0 / constrained_intra=0 / fgo=0 / bframes=12 / b_pyramid=2 / b_adapt=2 / b_bias=0 / direct=3 / weightb=1 / open_gop=0 / weightp=2 / keyint=240 / keyint_min=23 / scenecut=40 / intra_refresh=0 / rc_lookahead=50 / rc=2pass / mbtree=0 / bitrate=10827 / ratetol=1.0 / qcomp=0.60 / qpmin=0 / qpmax=51 / qpstep=4 / cplxblur=20.0 / qblur=0.5 / vbv_maxrate=50000 / vbv_bufsize=62500 / nal_hrd=none / filler=0 / ip_ratio=1.40 / pb_ratio=1.30 / aq=3:0.80
  38. Language : English
  39. Default : Yes
  40. Forced : No

  41. Audio #1
  42. ID : 2
  43. Format : AC-3
  44. Format/Info : Audio Coding 3
  45. Commercial name : Dolby Digital
  46. Codec ID : A_AC3
  47. Duration : 1 h 50 min
  48. Bit rate mode : Constant
  49. Bit rate : 384 kb/s
  50. Channel(s) : 6 channels
  51. Channel layout : L R C LFE Ls Rs
  52. Sampling rate : 48.0 kHz
  53. Frame rate : 31.250 FPS (1536 SPF)
  54. Bit depth : 16 bits
  55. Compression mode : Lossy
  56. Stream size : 302 MiB (3%)
  57. Title : MVO [Amedia]
  58. Language : Russian
  59. Service kind : Complete Main
  60. Default : Yes
  61. Forced : Yes

  62. Audio #2
  63. ID : 3
  64. Format : AC-3
  65. Format/Info : Audio Coding 3
  66. Commercial name : Dolby Digital
  67. Codec ID : A_AC3
  68. Duration : 1 h 50 min
  69. Bit rate mode : Constant
  70. Bit rate : 640 kb/s
  71. Channel(s) : 6 channels
  72. Channel layout : L R C LFE Ls Rs
  73. Sampling rate : 48.0 kHz
  74. Frame rate : 31.250 FPS (1536 SPF)
  75. Bit depth : 16 bits
  76. Compression mode : Lossy
  77. Stream size : 504 MiB (5%)
  78. Title : MVO [FocusStudio]
  79. Language : Russian
  80. Service kind : Complete Main
  81. Default : No
  82. Forced : No

  83. Audio #3
  84. ID : 4
  85. Format : AC-3
  86. Format/Info : Audio Coding 3
  87. Commercial name : Dolby Digital
  88. Codec ID : A_AC3
  89. Duration : 1 h 50 min
  90. Bit rate mode : Constant
  91. Bit rate : 192 kb/s
  92. Channel(s) : 2 channels
  93. Channel layout : L R
  94. Sampling rate : 48.0 kHz
  95. Frame rate : 31.250 FPS (1536 SPF)
  96. Bit depth : 16 bits
  97. Compression mode : Lossy
  98. Stream size : 151 MiB (1%)
  99. Title : MVO [HDRezka Studio]
  100. Language : Russian
  101. Service kind : Complete Main
  102. Default : No
  103. Forced : No

  104. Audio #4
  105. ID : 5
  106. Format : AC-3
  107. Format/Info : Audio Coding 3
  108. Commercial name : Dolby Digital
  109. Codec ID : A_AC3
  110. Duration : 1 h 50 min
  111. Bit rate mode : Constant
  112. Bit rate : 640 kb/s
  113. Channel(s) : 6 channels
  114. Channel layout : L R C LFE Ls Rs
  115. Sampling rate : 48.0 kHz
  116. Frame rate : 31.250 FPS (1536 SPF)
  117. Bit depth : 16 bits
  118. Compression mode : Lossy
  119. Stream size : 504 MiB (5%)
  120. Title : AVO [Serbin]
  121. Language : Russian
  122. Service kind : Complete Main
  123. Default : No
  124. Forced : No

  125. Audio #5
  126. ID : 6
  127. Format : AC-3
  128. Format/Info : Audio Coding 3
  129. Commercial name : Dolby Digital
  130. Codec ID : A_AC3
  131. Duration : 1 h 50 min
  132. Bit rate mode : Constant
  133. Bit rate : 640 kb/s
  134. Channel(s) : 6 channels
  135. Channel layout : L R C LFE Ls Rs
  136. Sampling rate : 48.0 kHz
  137. Frame rate : 31.250 FPS (1536 SPF)
  138. Bit depth : 16 bits
  139. Compression mode : Lossy
  140. Stream size : 504 MiB (5%)
  141. Title : Original
  142. Language : English
  143. Service kind : Complete Main
  144. Default : No
  145. Forced : No

  146. Text #1
  147. ID : 7
  148. Format : UTF-8
  149. Codec ID : S_TEXT/UTF8
  150. Codec ID/Info : UTF-8 Plain Text
  151. Duration : 1 h 47 min
  152. Bit rate : 79 b/s
  153. Count of elements : 1285
  154. Stream size : 62.4 KiB (0%)
  155. Title : Full
  156. Language : Russian
  157. Default : No
  158. Forced : No

  159. Text #2
  160. ID : 8
  161. Format : UTF-8
  162. Codec ID : S_TEXT/UTF8
  163. Codec ID/Info : UTF-8 Plain Text
  164. Duration : 1 h 45 min
  165. Bit rate : 52 b/s
  166. Count of elements : 1407
  167. Stream size : 40.4 KiB (0%)
  168. Title : Full
  169. Language : English
  170. Default : No
  171. Forced : No

  172. Text #3
  173. ID : 9
  174. Format : UTF-8
  175. Codec ID : S_TEXT/UTF8
  176. Codec ID/Info : UTF-8 Plain Text
  177. Duration : 1 h 49 min
  178. Bit rate : 63 b/s
  179. Count of elements : 1904
  180. Stream size : 51.1 KiB (0%)
  181. Title : SDH
  182. Language : English
  183. Default : No
  184. Forced : No

  185. Menu
  186. 00:00:00.000 : en:Chapter 1
  187. 00:00:25.942 : en:Chapter 2
  188. 00:11:09.043 : en:Chapter 3
  189. 00:22:47.449 : en:Chapter 4
  190. 00:32:06.633 : en:Chapter 5
  191. 00:41:57.097 : en:Chapter 6
  192. 00:50:17.889 : en:Chapter 7
  193. 01:00:54.525 : en:Chapter 8
  194. 01:11:53.058 : en:Chapter 9
  195. 01:20:38.834 : en:Chapter 10
  196. 01:28:02.277 : en:Chapter 11
  197. 01:38:01.292 : en:Chapter 12
  198. 01:45:58.769 : en:Chapter 13
复制代码




游客,如果您要查看本帖隐藏内容请回复,您还可以免扣高清币免回复下载:https://www.85lou.com/plugin.php?id=wyfaka_url:url

回复

使用道具 举报

永恒神话

高清币
5791
金钱
13754
鲜花
0
在线时间
2272 小时
最后登录
2019-10-15
发表于 6 天前 | 显示全部楼层

楼主太厉害了!楼主,电影应该很好看我觉得中国高清论坛真是个好地方!
回复 支持 反对

使用道具 举报

人气偶像

高清币
1
金钱
770
鲜花
0
在线时间
172 小时
最后登录
2019-10-14
发表于 6 天前 | 显示全部楼层
楼主发贴辛苦了,谢谢楼主分享!我觉得中国高清论坛是注册对了!
回复 支持 反对

使用道具 举报

影坛巨星

高清币
4331
金钱
6017
鲜花
0
在线时间
930 小时
最后登录
2019-10-14
发表于 6 天前 | 显示全部楼层

这个帖子不回对不起自己!我想我是一天也不能离开中国高清论坛
回复 支持 反对

使用道具 举报

知名艺人

高清币
7
金钱
437
鲜花
0
在线时间
48 小时
最后登录
2019-10-12
发表于 6 天前 | 显示全部楼层

既然你诚信诚意的推荐了,那我就勉为其难的看看吧!中国高清论坛不走平凡路。
回复 支持 反对

使用道具 举报

超级明星

高清币
240
金钱
8121
鲜花
0
在线时间
2503 小时
最后登录
2019-10-14
发表于 6 天前 | 显示全部楼层
楼主发贴辛苦了,谢谢楼主分享!我觉得中国高清论坛是注册对了!
回复 支持 反对

使用道具 举报

金鸡奖主角

高清币
219
金钱
4537
鲜花
0
在线时间
770 小时
最后登录
2019-10-13
发表于 6 天前 | 显示全部楼层

这东西我收了!谢谢楼主!中国高清论坛真好!
回复 支持 反对

使用道具 举报

人气偶像

高清币
337
金钱
643
鲜花
0
在线时间
79 小时
最后登录
2019-10-15
发表于 6 天前 | 显示全部楼层

论坛不能没有像楼主这样的人才啊!我会一直支持中国高清论坛
回复 支持 反对

使用道具 举报

永恒神话

高清币
19325
金钱
33235
鲜花
0
在线时间
2619 小时
最后登录
2019-10-14
发表于 6 天前 | 显示全部楼层
谢谢发片,辛苦了
回复 支持 反对

使用道具 举报

超级明星

高清币
1098
金钱
7975
鲜花
0
在线时间
1811 小时
最后登录
2019-10-14
发表于 6 天前 | 显示全部楼层
楼主发贴辛苦了,谢谢楼主分享!我觉得中国高清论坛是注册对了!
回复 支持 反对

使用道具 举报

懒得打字嘛,点击右侧快捷回复 【右侧内容,后台自定义】
您需要登录后才可以回帖 登录 | 立即注册

本版积分规则

QQ|手机版|小黑屋|中国高清论坛 ( 黔ICP备16007815号-1 )

GMT+8, 2019-10-15 01:41 , Processed in 0.053709 second(s), 26 queries .

Powered by Discuz! X3.4

© 2001-2017 Comsenz Inc.

快速回复 返回顶部 返回列表